bt.etree.org
etree.org Community Bittorrent Tracker
ArtistPhish
Showphish1995-10-14at4031
Report this as
non-Trade-Friendly
Email us
Torrentphish1995-10-14at4031.torrent (click to download)
Downloads asphish1995-10-14at4031
Info hashb67f91f88835fa3a7e1e81b7c31763e18ebe5cc9
db linkhttp://db.etree.org/shn/123737 | Show | Source
DescriptionPhish - October 14, 1995
Austin Music Hall - Austin, TX

Recording Info:
Audio-Technica 4031 -> Dat (48k)

Transfer Info:
Dat (Tascam DA-20) -> Tascam SS-R05 -> Samplitude Professional v11.2.1 -> FLAC
(3 Discs Audio / 1 DVD FLAC)

All Transfers and Mastering By Charlie Miller
charliemiller87@earthlink.net
February 7, 2013

Notes:
-- All disc changes are seamless
-- You Enjoy Myself with John Medeski, Billy Martin, Chris Wood and Dominic Placco

Set 1:
d1t01 - AC/DC Bag
d1t02 - Cars Trucks Buses
d1t03 - Kung ->
d1t04 - Free
d1t05 - Sparkle ->
d1t06 - Stash ->
d1t07 - Catapult
d1t08 - Acoustic Army
d1t09 - It's Ice ->
d1t10 - Tela
d2t01 - Runaway Jim

Set 2:
d2t02 - Reba
d2t03 - Rift
d2t04 - You Enjoy Myself
d2t05 - Hello My Baby
d2t06 - Scent Of A Mule
d2t07 - Cavern

Encore:
d3t01 - A Day In The Life


SHNTOOL OUTPUT:
length expanded size cdr WAVE problems fmt ratio filename
9:13.60 97690364 B --- -- ---xx flac 0.5806 phish1995-10-14d1t01.flac
3:50.18 40614380 B --- -- ---xx flac 0.5735 phish1995-10-14d1t02.flac
4:59.12 52771868 B --- -- ---xx flac 0.5232 phish1995-10-14d1t03.flac
8:57.66 94882076 B --- -- ---xx flac 0.6082 phish1995-10-14d1t04.flac
3:35.37 38013068 B --- -- ---xx flac 0.5895 phish1995-10-14d1t05.flac
18:10.42 192374828 B --- -- ---xx flac 0.5492 phish1995-10-14d1t06.flac
1:53.23 19987340 B --- -- ---xx flac 0.4752 phish1995-10-14d1t07.flac
4:18.27 45574748 B --- -- ---xx flac 0.4634 phish1995-10-14d1t08.flac
9:33.51 101197196 B --- -- ---xx flac 0.5350 phish1995-10-14d1t09.flac
6:37.43 70131980 B --- -- ---xx flac 0.5419 phish1995-10-14d1t10.flac
9:17.53 98379500 B --- -- ---xx flac 0.6020 phish1995-10-14d2t01.flac
15:40.32 165891308 B --- -- ---xx flac 0.5514 phish1995-10-14d2t02.flac
5:45.66 61013276 B --- -- ---xx flac 0.5881 phish1995-10-14d2t03.flac
28:50.51 305291996 B --- -- ---xx flac 0.5758 phish1995-10-14d2t04.flac
1:29.39 15791372 B --- -- ---xx flac 0.5160 phish1995-10-14d2t05.flac
12:02.04 127370252 B --- -- ---xx flac 0.5069 phish1995-10-14d2t06.flac
6:30.60 68937164 B --- -- ---xx flac 0.6055 phish1995-10-14d2t07.flac
4:42.35 49827164 B --- -- ---xx flac 0.5765 phish1995-10-14d3t01.flac
155:29.44 1645739880 B 0.5600 (18 files)
Checksumsphish1995-10-14d1t01.flac:f25205911996e598e10ec3ec2c0dfa44<br />
phish1995-10-14d1t02.flac:4acb99216ffd7c1e70c1b65edfd2d2ee<br />
phish1995-10-14d1t03.flac:82747658b6c4c7d015e299e9e7d3d05c<br />
phish1995-10-14d1t04.flac:c3ff14e52df36833f547db03b95bf44a<br />
phish1995-10-14d1t05.flac:aa1425c87372c139551d3294a7a72d2e<br />
phish1995-10-14d1t06.flac:decc096d8d8af6ffa8106d2787ae4252<br />
phish1995-10-14d1t07.flac:eaba5361a47bd669c84ef61bf9ab6701<br />
phish1995-10-14d1t08.flac:0c1bfe937e989983547800bdbfe4a1c4<br />
phish1995-10-14d1t09.flac:f0bd0d0f4305f604b4f395e28565f6d2<br />
phish1995-10-14d1t10.flac:870eb659fe50d26e4be2f3f08f9bf0dc<br />
phish1995-10-14d2t01.flac:eec8556af6310e3e8e20bdbdf4ed0cb6<br />
phish1995-10-14d2t02.flac:abac19d4e444adec1a1c439d2a9b80bd<br />
phish1995-10-14d2t03.flac:81fef43c91ecc89dac9e1c275dc14796<br />
phish1995-10-14d2t04.flac:ab0f64718f0a60fcf24368a119f41e31<br />
phish1995-10-14d2t05.flac:5700f1bcee83fd7fa9841098f360f27d<br />
phish1995-10-14d2t06.flac:9175a13f9a4d9b428bf040ba0ca48020<br />
phish1995-10-14d2t07.flac:af5acbc49986c47e5c8bcd36be98ea03<br />
phish1995-10-14d3t01.flac:5c4e934ae4d2e79fa8e81c66b056b2c3<br />
TypePhish
Last seederLast activity 2:03 ago
Size878.99 MB (921692331 Bytes)
Added2013-02-08 00:37:07
Views2
Hits613
Snatched380 times
Upped bycharlie miller
Num files21 files
File List
[Hide list]
filenamesizemd5
phish1995-10-14.ffp1.1 kBN/A
phish1995-10-14.md51.1 kBN/A
phish1995-10-14.txt2.6 kBN/A
phish1995-10-14d1t01.flac54.09 MBN/A
phish1995-10-14d1t02.flac22.21 MBN/A
phish1995-10-14d1t03.flac26.33 MBN/A
phish1995-10-14d1t04.flac55.04 MBN/A
phish1995-10-14d1t05.flac21.37 MBN/A
phish1995-10-14d1t06.flac100.75 MBN/A
phish1995-10-14d1t07.flac9.06 MBN/A
phish1995-10-14d1t08.flac20.14 MBN/A
phish1995-10-14d1t09.flac51.63 MBN/A
phish1995-10-14d1t10.flac36.24 MBN/A
phish1995-10-14d2t01.flac56.48 MBN/A
phish1995-10-14d2t02.flac87.24 MBN/A
phish1995-10-14d2t03.flac34.22 MBN/A
phish1995-10-14d2t04.flac167.63 MBN/A
phish1995-10-14d2t05.flac7.77 MBN/A
phish1995-10-14d2t06.flac61.57 MBN/A
phish1995-10-14d2t07.flac39.81 MBN/A
phish1995-10-14d3t01.flac27.39 MBN/A
Peers
[See full list]
1 seeder, 0 leechers = 1 peer total

Add a comment

twatts 2013-02-08 00:59:26
Thanks Charlie!

Terry
LeviSnuts 2013-02-08 01:26:22
thanks!
jmitchell 2013-02-08 01:39:31
Thanks!
jasonsobel 2013-02-08 05:32:31
I just added this to the etree database:
http://db.etree.org/shn/123737

thanks!

also, this was taped by Don Wright. I've added that info to the db entry.
jakechyllenhaal 2013-02-08 09:48:30
I'll never forget it. . .this was the show when Trey approached me in the lot, walking towards me with this distinct look in his face.
metawhy 2013-02-08 10:19:33
cool story Hansel!
sprobeck 2013-02-08 16:02:34
TYC
mike999 2013-02-08 20:23:13
Mr Miller does it again!! Thanks a ton!!
jdmatt68 2013-02-08 21:54:35
sweet!!! thanks!
sumodie 2013-02-11 10:27:03
thank you!

Add a comment


http://etree.org : http://db.etree.org : http://forums.etree.org : http://wiki.etree.org : Legal : RSS Feed

Contents designed & maintained by the etree.org volunteers
1998-2014, etree.org, except where noted. All Rights Reserved.
Read our terms of service and privacy guidelines