bt.etree.org
etree.org Community Bittorrent Tracker
ArtistJerry Joseph
ShowJerry Joseph Solo Acoustic Smith's Olde Bar Atlanta, Georgia 2/7/2013 (Schoeps CCM4V'S FOB)
Report this as
non-Trade-Friendly
Email us
Torrentjerry2013-02-07.flac16.torrent (click to download)
Downloads asjerry2013-02-07.flac16
Info hash85346b75b83a870d75878eb3d8822c328a522e06
DescriptionJerry Joseph Solo Acoustic
Smith's Olde Bar
Atlanta, Georgia
2/7/2013

Source: Schoeps CCM4V'S(din)>Lunatec V2>Benchmark AD2K>
Sound Devices 722 (24/48)
BFOB/DFC/KFC/ZFC/AARP 15' From Stage, 7' High
DSP: Sound Devices 722>Sound Forge 9.0>CD Wave>flac(16)
Recorded By: Z-Man
Seeded By: Z-Man

Disc I

01 Ship >
02 Radio Cab
03 War At The End Of The World
04 Wisconsin Death Trip >
05 Banter
06 Bouncing Very Well
07 Banter/Tuning
08 Wonder Wheel
09 Lax

Disc II

01 Banter
02 Poison >
03 Hot, Blue, And Righteous
04 Revolution >
05 Space Oddity >
06 Chainsaw City >
07 The Chain >
08 Chainsaw City
09 Banter
10 White Peaches
11 Hallelujah Trail >
12 Kind Of Place
Encore:
13 Thanks/Banter
14 We Will Go Down >
15 Good Sunday

Flac Fingerprint

jerry2013-02-07d01t01.flac:39ad9df209b089382e82351417119aeb
jerry2013-02-07d01t02.flac:5b32d431b457ee0026296f34d26bb58e
jerry2013-02-07d01t03.flac:1a123518102021440fd136c568f04a43
jerry2013-02-07d01t04.flac:f838ce9c835a5b466b7432829d566987
jerry2013-02-07d01t05.flac:5a8968f3db13e8f3958df551c2450921
jerry2013-02-07d01t06.flac:f6f7d2d64ffabbb5c3fc8fa2600c9cc3
jerry2013-02-07d01t07.flac:d1aa73deee0ad81163e9aa7111da66a4
jerry2013-02-07d01t08.flac:c1146105f61b1be31e70a7a055fe0119
jerry2013-02-07d01t09.flac:9330a3035910e773e54814f864b5148c
jerry2013-02-07d02t01.flac:4de1f086c0a588db181be377cb79dc9e
jerry2013-02-07d02t02.flac:bc2c9a4f130517762ef599287d82c068
jerry2013-02-07d02t03.flac:37f6e0318e43512167386d5cd703381d
jerry2013-02-07d02t04.flac:f47ee457fa67167a46649613935fcc1d
jerry2013-02-07d02t05.flac:ff072e4fe1705bb24811a7db11066bf0
jerry2013-02-07d02t06.flac:d2c8d73cf0a8f26d92e2bc23e47b80a9
jerry2013-02-07d02t07.flac:c4b22aa7ec8bc13cc0bae12c3295ed09
jerry2013-02-07d02t08.flac:1fab8faa30fda4f643b2e98414cd384d
jerry2013-02-07d02t09.flac:b5636192b618bd135ceae743656a2032
jerry2013-02-07d02t10.flac:1508f135fd29fd69f78fbd98c1c535b0
jerry2013-02-07d02t11.flac:fcc60f481545bccf207fee8796b27c0a
jerry2013-02-07d02t12.flac:aaf37dc07fc9037a0ff72e2cdfaf16de
jerry2013-02-07d02t13.flac:4c01665f593b69a903650f76d744e6fd
jerry2013-02-07d02t14.flac:f7dc0690b3a9b4cc49e77c4946d648b9
jerry2013-02-07d02t15.flac:540d7a1d5613c2e870405c1e50621f0f

Shntool

length expanded size cdr WAVE problems fmt ratio filename
7:35.66 80417276 B --- -- ---xx flac 0.3895 jerry2013-02-07d01t01.flac
6:49.41 72244076 B --- -- ---xx flac 0.5071 jerry2013-02-07d01t02.flac
8:09.53 86384300 B --- -- ---xx flac 0.4572 jerry2013-02-07d01t03.flac
6:29.68 68779580 B --- -- ---xx flac 0.4721 jerry2013-02-07d01t04.flac
2:16.59 24129212 B --- -- ---xx flac 0.3058 jerry2013-02-07d01t05.flac
5:01.53 53221100 B --- -- ---xx flac 0.4895 jerry2013-02-07d01t06.flac
2:13.17 23501228 B --- -- ---xx flac 0.3080 jerry2013-02-07d01t07.flac
5:42.01 60331196 B --- -- ---xx flac 0.4768 jerry2013-02-07d01t08.flac
7:41.06 81334556 B --- -- ---xx flac 0.4698 jerry2013-02-07d01t09.flac
2:00.26 21229196 B --- -- ---xx flac 0.2904 jerry2013-02-07d02t01.flac
7:08.07 75515708 B --- -- ---xx flac 0.4568 jerry2013-02-07d02t02.flac
4:49.29 51047852 B --- -- ---xx flac 0.4074 jerry2013-02-07d02t03.flac
5:12.01 55039196 B --- -- ---xx flac 0.3824 jerry2013-02-07d02t04.flac
1:35.22 16809788 B --- -- ---xx flac 0.4952 jerry2013-02-07d02t05.flac
2:48.08 29654060 B --- -- ---xx flac 0.4677 jerry2013-02-07d02t06.flac
1:14.65 13206524 B --- -- ---xx flac 0.4327 jerry2013-02-07d02t07.flac
3:13.04 34054652 B --- -- ---xx flac 0.5115 jerry2013-02-07d02t08.flac
2:27.19 25975532 B --- -- ---xx flac 0.2926 jerry2013-02-07d02t09.flac
5:49.27 61627148 B --- -- ---xx flac 0.4213 jerry2013-02-07d02t10.flac
6:23.22 67612988 B --- -- ---xx flac 0.4440 jerry2013-02-07d02t11.flac
6:20.43 67133180 B --- -- ---xx flac 0.5359 jerry2013-02-07d02t12.flac
1:13.70 13041884 B --- -- ---xx flac 0.3260 jerry2013-02-07d02t13.flac
10:22.57 109854908 B --- -- ---xx flac 0.4754 jerry2013-02-07d02t14.flac
6:46.30 71689004 B --- -- ---xx flac 0.5160 jerry2013-02-07d02t15.flac
119:24.44 1263834144 B 0.4498 (24 files)



























Checksumsjerry2013-02-07d01t01.flac:39ad9df209b089382e82351417119aeb<br />
jerry2013-02-07d01t02.flac:5b32d431b457ee0026296f34d26bb58e<br />
jerry2013-02-07d01t03.flac:1a123518102021440fd136c568f04a43<br />
jerry2013-02-07d01t04.flac:f838ce9c835a5b466b7432829d566987<br />
jerry2013-02-07d01t05.flac:5a8968f3db13e8f3958df551c2450921<br />
jerry2013-02-07d01t06.flac:f6f7d2d64ffabbb5c3fc8fa2600c9cc3<br />
jerry2013-02-07d01t07.flac:d1aa73deee0ad81163e9aa7111da66a4<br />
jerry2013-02-07d01t08.flac:c1146105f61b1be31e70a7a055fe0119<br />
jerry2013-02-07d01t09.flac:9330a3035910e773e54814f864b5148c<br />
jerry2013-02-07d02t01.flac:4de1f086c0a588db181be377cb79dc9e<br />
jerry2013-02-07d02t02.flac:bc2c9a4f130517762ef599287d82c068<br />
jerry2013-02-07d02t03.flac:37f6e0318e43512167386d5cd703381d<br />
jerry2013-02-07d02t04.flac:f47ee457fa67167a46649613935fcc1d<br />
jerry2013-02-07d02t05.flac:ff072e4fe1705bb24811a7db11066bf0<br />
jerry2013-02-07d02t06.flac:d2c8d73cf0a8f26d92e2bc23e47b80a9<br />
jerry2013-02-07d02t07.flac:c4b22aa7ec8bc13cc0bae12c3295ed09<br />
jerry2013-02-07d02t08.flac:1fab8faa30fda4f643b2e98414cd384d<br />
jerry2013-02-07d02t09.flac:b5636192b618bd135ceae743656a2032<br />
jerry2013-02-07d02t10.flac:1508f135fd29fd69f78fbd98c1c535b0<br />
jerry2013-02-07d02t11.flac:fcc60f481545bccf207fee8796b27c0a<br />
jerry2013-02-07d02t12.flac:aaf37dc07fc9037a0ff72e2cdfaf16de<br />
jerry2013-02-07d02t13.flac:4c01665f593b69a903650f76d744e6fd<br />
jerry2013-02-07d02t14.flac:f7dc0690b3a9b4cc49e77c4946d648b9<br />
jerry2013-02-07d02t15.flac:540d7a1d5613c2e870405c1e50621f0f
TypeJerry Joseph
Last seederLast activity 13:52:03 ago
Size542.10 MB (568433729 Bytes)
Added2013-02-08 12:07:21
Views0
Hits213
Snatched98 times
Upped byzmanatl
Num files25 files
File List
[Hide list]
filenamesizemd5
jerry2013-02-07d02t14.flac49.80 MBN/A
jerry2013-02-07d01t03.flac37.67 MBN/A
jerry2013-02-07d01t09.flac36.44 MBN/A
jerry2013-02-07d02t15.flac35.28 MBN/A
jerry2013-02-07d01t02.flac34.94 MBN/A
jerry2013-02-07d02t12.flac34.31 MBN/A
jerry2013-02-07d02t02.flac32.89 MBN/A
jerry2013-02-07d01t04.flac30.97 MBN/A
jerry2013-02-07d01t01.flac29.87 MBN/A
jerry2013-02-07d02t11.flac28.63 MBN/A
jerry2013-02-07d01t08.flac27.43 MBN/A
jerry2013-02-07d01t06.flac24.84 MBN/A
jerry2013-02-07d02t10.flac24.76 MBN/A
jerry2013-02-07d02t04.flac20.07 MBN/A
jerry2013-02-07d02t03.flac19.84 MBN/A
jerry2013-02-07d02t08.flac16.61 MBN/A
jerry2013-02-07d02t06.flac13.23 MBN/A
jerry2013-02-07d02t05.flac7.94 MBN/A
jerry2013-02-07d02t09.flac7.25 MBN/A
jerry2013-02-07d01t05.flac7.04 MBN/A
jerry2013-02-07d01t07.flac6.90 MBN/A
jerry2013-02-07d02t01.flac5.88 MBN/A
jerry2013-02-07d02t07.flac5.45 MBN/A
jerry2013-02-07d02t13.flac4.06 MBN/A
jerry2013-02-07.textfile.txt4.7 kBN/A
Peers
[See full list]
1 seeder, 0 leechers = 1 peer total

Add a comment

sean612 2013-02-08 12:36:10
Thanks.
rjones1969 2013-02-08 13:22:53
Nice looking set Z thanks
zmanatl 2013-02-08 17:01:24
I saw a great night of music last night! Both Ralph Roddenbery and Jerry delivered the goods for this all acoustic evening of tunage. Here are a few videos, amateur of course.

We Will Go Down >
Good Sunday:
http://youtu.be/-ddTm5s0g4g

Bouncing Very Well:
http://youtu.be/_OKX-JNUpj8

LAX:
http://youtu.be/cpaZ1TaSrbM

War At The End Of The World:
http://youtu.be/iEPMVHjZVMc

White Peaches:
http://youtu.be/66EHx6ywB1M

Wisconsin Deathtrip:
http://youtu.be/HXiuQx3zmHM

Wonder Wheel:
http://youtu.be/yiCEDnFhmKc

Enjoy show # 27 of 2013!
mmwarchives 2013-02-08 19:44:51
Thanks for gettin' it done (as always), Z!!

The missing tune in the second set is probably "Wicked Games" by the Weeknd:
http://www.youtube.com/watch?v=gC1u15534tA

I was told that he played that last night.
mmwarchives 2013-02-08 22:56:24
Z--

I'm checking this out now...that song is not "Wicked Games"...it is actually "Hot, Blue & Righteous" by ZZ Top from the album 'Tres Hombres'.

Cheers!!
Myco69 2013-02-08 23:34:56
Got it! thx Z! Myco
mmwarchives 2013-02-08 23:49:35
Here's a detailed list of everything that is in there with all correct titles & raps, etc.:

Disc I

01 Ship >
02 Radio Cab
03 War At The End Of The World
04 Wisconsin Death Trip >
05 Banter
06 Bouncing Very Well
07 Banter/Tuning
08 Wonder Wheel
09 Lax

Disc II

01 Banter
02 Poison >
03 Hot, Blue & Righteous
04 Revolution >
05 "space oddity>ashes to ashes" raps interweaved>
06 Chainsaw City >
07 "the chain" rap >
08 Chainsaw City > "wicked games" rap > Chainsaw City > Revolution
09 Banter
10 White Peaches
11 Hallelujah Trail >
12 Kind Of Place
Encore:
13 Thanks/Banter
14 We Will Go Down > "heavy makes you happy (sha-na-boom boom)>get down moses>we can dance>i wanna dance with somebody>we can dance>save the last dance for me" raps ending >
15 Good Sunday > "i wanna dance with somebody>save the last dance for me>twistin' the night away>save the last dance for me" raps > Good Sunday > "get down moses" rap ending

raps/cover tunes & their corresponding bands:
"hot, blue & righteous" - ZZ Top
"space oddity" - David Bowie
"ashes to ashes" - David Bowie
"the chain" - Fleetwood Mac
"wicked games" - the Weeknd
"heavy makes you happy (sha-na-boom boom)" - the Staple Singers
"get down moses" - Joe Strummer & the Mescaleros
"we can dance" - Jerry improvising(I think)
"i wanna dance with somebody" - Whitney Houston
"save the last dance for me" - Ben E.King & the Drifters (written by Doc Pomus/Mort Shuman)
"twistin' the night away" - Sam Cooke

Cheers!!
ArchivalAudio 2013-02-10 00:07:12
Excellent!

Thank you for being there and sharing!

Add a comment


http://etree.org : http://db.etree.org : http://forums.etree.org : http://wiki.etree.org : Legal : RSS Feed

Contents designed & maintained by the etree.org volunteers
1998-2014, etree.org, except where noted. All Rights Reserved.
Read our terms of service and privacy guidelines