bt.etree.org
etree.org Community Bittorrent Tracker
ArtistOther
ShowRalph Roddenbery Solo Acoustic Smith's Olde Bar Atlanta, Georgia 2/7/2013 (Schoeps CCM4V'S FOB)
Report this as
non-Trade-Friendly
Email us
Torrentralph2013-02-07.flac16.torrent (click to download)
Downloads asralph2013-02-07.flac16
Info hash3e4b0a012b5e32ca4d1cf7e00e5aa6389c4aba94
DescriptionRalph Roddenbery Solo Acoustic
Smith's Olde Bar
Atlanta, Georgia
2/7/2013

Source: Schoeps CCM4V'S(din)>Lunatec V2>Benchmark AD2K>
Sound Devices 722 (24/48)
BFOB/DFC/KFC/ZFC/AARP 15' From Stage, 7' High
DSP: Sound Devices 722>Sound Forge 9.0>CD Wave>flac(16)
Recorded By: Z-Man
Seeded By: Z-Man

Disc I

01 Banter
02 I'm Living like I'm Dying
03 Part Time Smart
04 Waiting
05 Banter
06 Wake Me Up
07 Just One Day
08
09 Tumbleweed
10 I Already Know
11 ?
12 Get Up Off Your Hands
13 Bottom Line
14 Gotta Get Away

Flac Fingerprint

ralph2013-02-07d01t01.flac:42aad8e3cc2e0b94af7d6e48c5c3e136
ralph2013-02-07d01t02.flac:343f0fe16cf1f9d443d525842e868865
ralph2013-02-07d01t03.flac:e979f55570c7629a110be128ec705ba8
ralph2013-02-07d01t04.flac:723d6908b080ba9e5355776ab60e13cb
ralph2013-02-07d01t05.flac:4eec1d1728f647e6071221c159501324
ralph2013-02-07d01t06.flac:c5def422f93b0b1e62b797c27410d63e
ralph2013-02-07d01t07.flac:60f1f86bb3abbe87ab02c613748c2e73
ralph2013-02-07d01t08.flac:8aeb74e01664b89fd0d5e17ac007164e
ralph2013-02-07d01t09.flac:b743b198e370d2037e4192beb5ce49e4
ralph2013-02-07d01t10.flac:5f8189291453a82959a9891ea0133bfa
ralph2013-02-07d01t11.flac:54fb1c8fd993a666787e878539f8564c
ralph2013-02-07d01t12.flac:2120ffe48421211c7f99b4d36b7ce9db
ralph2013-02-07d01t13.flac:d49f8037d5dce9bf702decc1727c4838
ralph2013-02-07d01t14.flac:ba76da171e1a4cfe133071d4f85694ee

Shntool

length expanded size cdr WAVE problems fmt ratio filename
1:35.17 16798028 B --- -- ---xx flac 0.2688 ralph2013-02-07d01t01.flac
4:33.13 48187820 B --- -- ---xx flac 0.4320 ralph2013-02-07d01t02.flac
4:23.01 46395596 B --- -- ---xx flac 0.4519 ralph2013-02-07d01t03.flac
3:03.13 32311820 B --- -- ---xx flac 0.4892 ralph2013-02-07d01t04.flac
1:48.43 19152380 B --- -- ---xx flac 0.3975 ralph2013-02-07d01t05.flac
5:28.02 57863948 B --- -- ---xx flac 0.4457 ralph2013-02-07d01t06.flac
2:51.20 30211484 B --- -- ---xx flac 0.4525 ralph2013-02-07d01t07.flac
3:21.69 35618732 B --- -- ---xx flac 0.4557 ralph2013-02-07d01t08.flac
4:07.68 43730780 B --- -- ---xx flac 0.4755 ralph2013-02-07d01t09.flac
5:18.56 56226956 B --- -- ---xx flac 0.4394 ralph2013-02-07d01t10.flac
3:37.40 38372924 B --- -- ---xx flac 0.4669 ralph2013-02-07d01t11.flac
4:58.13 52597820 B --- -- ---xx flac 0.4390 ralph2013-02-07d01t12.flac
5:15.71 55733036 B --- -- ---xx flac 0.4655 ralph2013-02-07d01t13.flac
3:24.34 36065612 B --- -- ---xx flac 0.4449 ralph2013-02-07d01t14.flac
53:47.10 569266936 B 0.4460 (14 files)






























Checksumsralph2013-02-07d01t01.flac:42aad8e3cc2e0b94af7d6e48c5c3e136
ralph2013-02-07d01t02.flac:343f0fe16cf1f9d443d525842e868865
ralph2013-02-07d01t03.flac:e979f55570c7629a110be128ec705ba8
ralph2013-02-07d01t04.flac:723d6908b080ba9e5355776ab60e13cb
ralph2013-02-07d01t05.flac:4eec1d1728f647e6071221c159501324
ralph2013-02-07d01t06.flac:c5def422f93b0b1e62b797c27410d63e
ralph2013-02-07d01t07.flac:60f1f86bb3abbe87ab02c613748c2e73
ralph2013-02-07d01t08.flac:8aeb74e01664b89fd0d5e17ac007164e
ralph2013-02-07d01t09.flac:b743b198e370d2037e4192beb5ce49e4
ralph2013-02-07d01t10.flac:5f8189291453a82959a9891ea0133bfa
ralph2013-02-07d01t11.flac:54fb1c8fd993a666787e878539f8564c
ralph2013-02-07d01t12.flac:2120ffe48421211c7f99b4d36b7ce9db
ralph2013-02-07d01t13.flac:d49f8037d5dce9bf702decc1727c4838
ralph2013-02-07d01t14.flac:ba76da171e1a4cfe133071d4f85694ee
TypeOther
Last seederLast activity 20:14 ago
Size242.15 MB (253910294 Bytes)
Added2013-02-08 12:24:53
Views0
Hits149
Snatched43 times
Upped byzmanatl
Num files15 files
File List
[Hide list]
filenamesizemd5
ralph2013-02-07d01t13.flac24.74 MBN/A
ralph2013-02-07d01t06.flac24.60 MBN/A
ralph2013-02-07d01t10.flac23.56 MBN/A
ralph2013-02-07d01t12.flac22.02 MBN/A
ralph2013-02-07d01t03.flac19.99 MBN/A
ralph2013-02-07d01t02.flac19.85 MBN/A
ralph2013-02-07d01t09.flac19.83 MBN/A
ralph2013-02-07d01t11.flac17.09 MBN/A
ralph2013-02-07d01t08.flac15.48 MBN/A
ralph2013-02-07d01t14.flac15.30 MBN/A
ralph2013-02-07d01t04.flac15.07 MBN/A
ralph2013-02-07d01t07.flac13.04 MBN/A
ralph2013-02-07d01t05.flac7.26 MBN/A
ralph2013-02-07d01t01.flac4.31 MBN/A
ralph2013-02-07.textfile.txt3.0 kBN/A
Peers
[See full list]
1 seeder, 0 leechers = 1 peer total

Add a comment

2groundhog2 2013-02-08 12:40:35
Thanks Z!
bluedogbeads 2013-02-08 15:07:37
awesome..thanks

Add a comment


http://etree.org : http://db.etree.org : http://forums.etree.org : http://wiki.etree.org : Legal : RSS Feed

Contents designed & maintained by the etree.org volunteers
1998-2014, etree.org, except where noted. All Rights Reserved.
Read our terms of service and privacy guidelines