bt.etree.org
etree.org Community Bittorrent Tracker
ArtistPhish
Showphish1997-12-03 B+K4021
Report this as
non-Trade-Friendly
Email us
Torrentphish1997-12-03b+k4021.torrent (click to download)
Downloads asphish1997-12-03b+k4021
Info hash7bf27c923536f980d128fff5c715c9849e8e8fae
db linkhttp://db.etree.org/shn/123764 | Show | Source
DescriptionPhish - December 3, 1997
CoreStates Spectrum - Philadelphia, PA

Recording Info:
B+K 4021 -> Apogee AD1000 -> Dat (HHb Portadat PDR 1000/44.1k)

Transfer Info:
Dat (Tascam DA-20) -> Tascam SS-R05 -> Samplitude Professional v11.2.1 -> FLAC
(3 Discs Audio / 1 DVD FLAC)

All Transfers and Mastering By Charlie Miller
charliemiller87@earthlink.net
February 8, 2013

Notes:
-- Discs 2 and 3 are seamless
-- Recorded Row 1 Taper Section (Mics 12 Feet/75 Degrees)

Set 1:
d1t01 - Punch You In The Eye ->
d1t02 - My Soul
d1t03 - Drowned
d1t04 - The Old Home Place
d1t05 - Gumbo ->
d1t06 - Also Sprach Zarathustra ->
d1t07 - You Enjoy Myself

Set 2:
d2t01 - David Bowie ->
d2t02 - Possum ->
d2t03 - Prince Caspian ->
d2t04 - Frankenstein ->
d2t05 - Harry Hood

Encore:
d3t01 - Crossroads


SHNTOOL OUTPUT:
length expanded size cdr WAVE problems fmt ratio filename
9:30.32 100623308 B --- -- ---xx flac 0.5511 phish1997-12-03d1t01.flac
7:15.59 76872812 B --- -- ---xx flac 0.5633 phish1997-12-03d1t02.flac
16:36.72 175863788 B --- -- ---xx flac 0.5686 phish1997-12-03d1t03.flac
3:55.10 41477564 B --- -- ---xx flac 0.5557 phish1997-12-03d1t04.flac
9:40.13 102342620 B --- -- ---xx flac 0.5474 phish1997-12-03d1t05.flac
9:45.24 103250492 B --- -- ---xx flac 0.5660 phish1997-12-03d1t06.flac
20:50.07 220516508 B --- -- ---xx flac 0.5618 phish1997-12-03d1t07.flac
27:18.33 289020860 B --- -- ---xx flac 0.5407 phish1997-12-03d2t01.flac
21:51.21 231309836 B --- -- ---xx flac 0.5619 phish1997-12-03d2t02.flac
8:45.69 92772332 B --- -- ---xx flac 0.5774 phish1997-12-03d2t03.flac
5:10.37 54771068 B --- -- ---xx flac 0.5933 phish1997-12-03d2t04.flac
15:31.49 164343692 B --- -- ---xx flac 0.5548 phish1997-12-03d2t05.flac
5:33.73 58912940 B --- -- ---xx flac 0.5847 phish1997-12-03d3t01.flac
161:45.49 1712077820 B 0.5596 (13 files)
Checksumsphish1997-12-03d1t01.flac:11ed8a88b4b55226602c822c2d0f92e8<br />
phish1997-12-03d1t02.flac:45f60c447506e18468c7b7a84a625c70<br />
phish1997-12-03d1t03.flac:37c30a74420bcde2a52b201f6a532807<br />
phish1997-12-03d1t04.flac:7d2f2f475e5cf46db42a08867a48206a<br />
phish1997-12-03d1t05.flac:7415607735dd1d9b0a9fb71f4484f552<br />
phish1997-12-03d1t06.flac:f717e60e8d3f49e44a43a2ca7a468a88<br />
phish1997-12-03d1t07.flac:2a84cfdcf0ebb127ed9eeb3bcd6c3a85<br />
phish1997-12-03d2t01.flac:01fbe40f6a8b731d2a41dc21a9fe3263<br />
phish1997-12-03d2t02.flac:be054481e196759b602ffb0d0337fd74<br />
phish1997-12-03d2t03.flac:639a787a4595abdbcb94cbd0455ee758<br />
phish1997-12-03d2t04.flac:0fcc687f421769126af9a62a19bcea2e<br />
phish1997-12-03d2t05.flac:9f2b659e80ca1280904d09ce02bd730e<br />
phish1997-12-03d3t01.flac:994c8a0afaf1f69aed875df40b365890<br />
TypePhish
Last seederLast activity 10:03 ago
Size913.69 MB (958072928 Bytes)
Added2013-02-09 02:18:14
Views4
Hits769
Snatched560 times
Upped bycharlie miller
Num files
[See full list]
16 files
Peers
[See full list]
4 seeders, 0 leechers = 4 peers total

Add a comment

<< Prev      Next >>
1 - 20 | 21 - 26

A-Train 2013-02-10 10:53:56
Charlie, just keep doin what you're doin.....don't worry about the little stuff. Do it however it works for you....

It's not like it's a huge issue to rename a folder on our end if we don't like it....some people are just lookin to bitch at any little thing, sadly.
parrott56 2013-02-10 13:32:29
How anal and inconsiderate can someone get? Jesus Christ.

Thanks a million, Charlie. Most of us Phish Heads are dearly appreciative of all your hard work.
digs5446 2013-02-10 20:51:12
Huge thanks Charlie!
sumodie 2013-02-11 10:25:57
thank you!
jagraham84 2013-03-03 19:38:32
"would it kill you to label the folder 'ph1997-12-03...' instead of the entire word 'PHISH?'" - Smooth Carini

How fucking rude. Where does it say in the rules that the shows MUST be in your preferred filename? Let me ask something, Smooth Carini, where are all the shows you have posted with correct filename? Since you are the expert I'm sure all of yours meet that criteria. As a taper, comments like this have made me share less and less. Let's all hope to god that Mr. Miller doesn't have the same attitude I have...
gratefuldiscgolf 2014-04-06 21:14:13
yeah smoothcarini- wow. goes to show there are just unappreciative, lazy pricks everywhere. doesn't take more than 5 seconds to change a filename.

anyway, thanks charlie! great upload! thanks for all you do in the phish and GD taping/transferring world! I am CERTAINLY APPRECIATIVE!! BLESS THE TAPERS/TRANSFERERS/SEEDERS!

Also- jagraham84 - don't let one bad apple spoil the whole bunch. there's a lot of us out here that appreciate all you guys do! like i said, BLESS THE TAPERS!

1 - 20 | 21 - 26
<< Prev      Next >>

Add a comment


http://etree.org : http://db.etree.org : http://forums.etree.org : http://wiki.etree.org : Legal : RSS Feed

Contents designed & maintained by the etree.org volunteers
1998-2014, etree.org, except where noted. All Rights Reserved.
Read our terms of service and privacy guidelines