bt.etree.org
etree.org Community Bittorrent Tracker
ArtistGrateful Dead
Showgd84-06-30.sbd.miller.123778.flac16
Report this as
non-Trade-Friendly
Email us
Torrentgd84-06-30.sbd.miller.123778.sbeok.flac16.torrent (click to download)
Downloads asgd84-06-30.sbd.miller.123778.sbeok.flac16
Info hash93eba62b9208cad2930af3403e44311aa31ece60
db linkhttp://db.etree.org/shn/123778 | Show | Source
DescriptionGrateful Dead - June 30, 1984
Indianapolis Sports Center - Indianapolis, IN

Recording Info:
SBD -> Cassette Master -> Dat (44.1k)

Transfer Info:
Dat (Tascam DA-20) -> Tascam SS-R05 -> Adobe Audition v3.0 ->
Samplitude Professional v11.2.1 -> FLAC
(3 Discs Audio / 1 DVD FLAC)

All Transfers and Mastering By Charlie Miller
charliemiller87@earthlink.net
February 9, 2013

Patch Info:
(FOB) Beyer M160 + (1) Senn 421 -> Cassette Master -> FLAC (shnid=109804) suplies:
Tuning through Ramble On Rose
Drums (3:20 - 3:53)
Day Job (0:00 - 006) (2:37 - end of track)

Notes:
-- Set 2 is seamless
-- I fixed some issues that I missed last time
-- Thanks to Joe B. Jones for his help with the pitch correction

Set 1:
d1t01 - Tuning
d1t02 - Jack Straw
d1t03 - Dire Wolf
d1t04 - New Minglewood Blues
d1t05 - Dupree's Diamond Blues
d1t06 - Far From Me
d1t07 - My Brother Esau
d1t08 - Ramble On Rose
d1t09 - Lost Sailor ->
d1t10 - Saint Of Circumstance ->
d1t11 - Deal

Set 2:
d2t01 - Shakedown Street ->
d2t02 - Playing In The Band ->
d2t03 - Terrapin Station ->
d2t04 - Drums ->
d3t01 - Space ->
d3t02 - Playing In The Band ->
d3t03 - Truckin' ->
d3t04 - Spoonful ->
d3t05 - Stella Blue ->
d3t06 - Goin' Down The Road Feeling Bad ->
d3t07 - One More Saturday Night

Encore:
d3t08 - Keep Your Day Job


SHNTOOL OUTPUT:
length expanded size cdr WAVE problems fmt ratio filename
1:17.33 13660460 B --- -- ---xx flac 0.5141 gd84-06-30d1t01.flac
6:07.25 64797644 B --- -- ---xx flac 0.6165 gd84-06-30d1t02.flac
3:27.55 36644204 B --- -- ---xx flac 0.6262 gd84-06-30d1t03.flac
8:39.56 91683356 B --- -- ---xx flac 0.6222 gd84-06-30d1t04.flac
7:37.19 80659532 B --- -- ---xx flac 0.6297 gd84-06-30d1t05.flac
4:43.60 50062364 B --- -- ---xx flac 0.6449 gd84-06-30d1t06.flac
4:59.05 52755404 B --- -- ---xx flac 0.6251 gd84-06-30d1t07.flac
7:33.05 79921004 B --- -- ---xx flac 0.6183 gd84-06-30d1t08.flac
6:09.50 65209244 B --- -- ---xx flac 0.6338 gd84-06-30d1t09.flac
7:03.08 74636060 B --- -- ---xx flac 0.6804 gd84-06-30d1t10.flac
10:13.26 108194396 B --- -- ---xx flac 0.6788 gd84-06-30d1t11.flac
15:36.67 165268028 B --- -- ---xx flac 0.6726 gd84-06-30d2t01.flac
12:52.11 136206716 B --- -- ---xx flac 0.6512 gd84-06-30d2t02.flac
14:06.30 149305004 B --- -- ---xx flac 0.6374 gd84-06-30d2t03.flac
8:53.25 94080044 B --- -- ---xx flac 0.5703 gd84-06-30d2t04.flac
5:06.13 54009020 B --- -- ---xx flac 0.5737 gd84-06-30d3t01.flac
4:09.60 44064764 B --- -- ---xx flac 0.6371 gd84-06-30d3t02.flac
6:47.30 71865404 B --- -- ---xx flac 0.6807 gd84-06-30d3t03.flac
3:22.42 35731628 B --- -- ---xx flac 0.6507 gd84-06-30d3t04.flac
8:14.06 87155756 B --- -- ---xx flac 0.6198 gd84-06-30d3t05.flac
6:34.17 69541628 B --- -- ---xx flac 0.6822 gd84-06-30d3t06.flac
4:23.01 46395596 B --- -- ---xx flac 0.6710 gd84-06-30d3t07.flac
4:27.60 47239964 B --- -- ---xx flac 0.6199 gd84-06-30d3t08.flac
162:25.29 1719087220 B 0.6397 (23 files)
Checksums01fdec262cd4ec41de1ffac25781fec8 *gd84-06-30d1t01.flac
33f9373a51f9dce9dd73c3ef5acf8d6f *gd84-06-30d1t02.flac
975d31309163daa71488a617fe9bfbbd *gd84-06-30d1t03.flac
ce9efb1270fd10845c43cc3da81caf2c *gd84-06-30d1t04.flac
2948f9f84ef8a60dbb52af306baceb4a *gd84-06-30d1t05.flac
4ad9b0618bfaf3b84ee49faab4f9276b *gd84-06-30d1t06.flac
6d3f54db6b15da5bc0c70f7cf449cec1 *gd84-06-30d1t07.flac
d8dbb464621803844196a69f9c16cab0 *gd84-06-30d1t08.flac
ddeae3b44bb0b76a1400122231ffcf96 *gd84-06-30d1t09.flac
3c4676383f65514aad1db20a590b5f3a *gd84-06-30d1t10.flac
8906e8467cefcf8efe348a4533f675f7 *gd84-06-30d1t11.flac
eca42e1629fee9d117a238b577167a46 *gd84-06-30d2t01.flac
b3d7c481cda629e7c74cae9f650d602d *gd84-06-30d2t02.flac
335c956c2c44072c135569388076af06 *gd84-06-30d2t03.flac
b5adf9720c06fddfdf3758ce62cc08b9 *gd84-06-30d2t04.flac
107979aab48902b5a84dfe303a04798f *gd84-06-30d3t01.flac
3db0aed79d77146da663b35ce37d3b37 *gd84-06-30d3t02.flac
f4af8e1bc97993cf7e368c1d77b29a3f *gd84-06-30d3t03.flac
7513de987d1dd21af88f7b117b088749 *gd84-06-30d3t04.flac
34dcbd239648ff94c9ba9e0d91aa140d *gd84-06-30d3t05.flac
b7a3179f1a39057d95a138baff31f044 *gd84-06-30d3t06.flac
0964b6b668405985cffc51c20a4ec600 *gd84-06-30d3t07.flac
2eb07617f21c318be5fabea7047c9ff0 *gd84-06-30d3t08.flac
TypeGrateful Dead
Last seederLast activity 5:03 ago
Size1.024 GB (1099767419 Bytes)
Added2013-02-09 10:25:05
Views0
Hits1092
Snatched795 times
Upped byWHARFRAT73
Num files
[See full list]
26 files
Seeders
[Hide list]
3 Seeder(s)
ip:portclient
version
ul
bytes
dl
bytes
ratiocompleteul
rate
dl
rate
time
connected
time
left
idle
162.197.121.xxx:6881 0 B 0 B N/A 100.00%
N/A N/A 10:05:17 N/A 5:03
68.9.250.xxx:13133 μtorrent 3.4.2.0 0 B 0 B N/A 100.00%
N/A N/A 9:40:46 N/A 10:22
98.114.195.xxx:51413 0 B 0 B N/A 100.00%
N/A N/A 1:32:33 N/A 2:28
0 of 3 firewalled (0%) 100.00%
N/AN/A
Leechers
[Hide list]
0 Leecher(s)

Add a comment

mikewillour 2013-02-09 11:02:25
WOO HOOOO!!! Thanks!
bigdaddybflo 2013-02-09 11:06:50
Summer Tour 84 was the bomb !! You can 'Keep Your Day Job' cuz you still gotta work that 8hr day.

Hbomber!!! 2013-02-09 11:32:57
Thank you Charlie & Joe B Jones!!! One of my first tapes when i boarded the bus in 1985! An all-time great one! Definitely one of the best of 84, and unknown or underrated by many....
thecat18 2013-02-09 17:39:44
Thanks for sharing.
psimo2 2013-02-09 20:11:08
Looks great, thanks.
Hbomber!!! 2013-02-09 20:18:39
And thank you for all you do also, wharfrat73!!!!!
simonwagstaff 2013-02-10 07:52:21
this is one of my favorite shows ever! What a great time!
poizon45 2013-02-12 22:31:20
thanks a ton, really getting into mid 80s GD, this looks marvelous!
kayatosh 2013-02-13 10:47:07
Thank you. sounds good. and thanks for the comments encouraging me to seek this one out. peace
RabeldyNugs 2013-02-14 16:14:35
Sweet Miller SBD, Nice!

Check out the sex change lyrics in truckin.
xdeadhead 2013-02-16 00:29:31
this was the 3rd grateful dead concert i attended. always was a fave of mine and still is. nice to see it given the reatment it deserves. many thanks to all my fellow tapers and traders. cheers!

Add a comment


http://etree.org : http://db.etree.org : http://forums.etree.org : http://wiki.etree.org : Legal : RSS Feed

Contents designed & maintained by the etree.org volunteers
1998-2014, etree.org, except where noted. All Rights Reserved.
Read our terms of service and privacy guidelines