bt.etree.org
etree.org Community Bittorrent Tracker
ArtistOther
ShowTommy Talton Steve's Live Music Sandy Springs, Georgia 2/8/2013 (Schoeps CCM4V'S FOB)
Report this as
non-Trade-Friendly
Email us
Torrenttommy2013-02-08.flac16.torrent (click to download)
Downloads astommy2013-02-08.flac16
Info hashe730370ae98f092bdd381d168777759b7bef4c4e
DescriptionTommy Talton Band
Steve's Live Music
Sandy Springs, Georgia
2/8/2013

Source: Schoeps CCM4V'S(din)>Lunatec V2>Benchmark AD2K>
Sound Devices 722 (24/48)
BFOB/DFC/KFC/ZFC/AARP 7' From Stage, 6 1/2' High
DSP: Sound Devices 722>Sound Forge 9.0>CD Wave>flac(16)
Recorded By: Z-Man
Seeded By: Z-Man

Disc I 1st Set

01 Greeting/Banter
02 How Come People Act like That
03 I'm On Your Side >
04 You Will Always Have A Place In My Heart
05 Let's Get Outta Here
06 Dream Last Night
07 We Can Make It Through The Rain
08 Into The Mystic
09 If Your Attitude Is Funky

Disc II 1st Set Con't

01 Leopard-Skin Pill-Box Hat
02 On Your Way Down
03 Get Away Car
2nd Set:
04 Banter
05 Sit Here In The Sun
06 Banter
07 Color My Sleep
08 *Broken Pieces

Disc III 2nd Set Con't

01 Stuck Down In Mississippi
02 Recent Rain
03 Hard Drivin' Man >
04 Drum Solo >
05 Hard Drivin' Man >
06 Memphis Tennessee
07 Let Your Conscience Be Your Guide
08 Give A Little Bit, Take A Little BitEncore:
Encore:
09 Banter
10 Please Be With Me

* Tommy Solo

Tommy Talton - Electric Guitar, Acoustic Guitar, And Vocals
Brandon Peeples - Bass And Background Vocals
Ned Suddreth - Drums

Flac Fingerprint

tommy2013-02-08d01t01.flac:38cf2c466872c3549c111c52e65c37d5
tommy2013-02-08d01t02.flac:e61fdb25dbc509d811fc29097068280b
tommy2013-02-08d01t03.flac:3fcd9113e30d95ff775753f1c4306cfc
tommy2013-02-08d01t04.flac:b7bfd5bf1008499712d89c189d6a637f
tommy2013-02-08d01t05.flac:c83f4eccc363362454f10fb4f11b51ee
tommy2013-02-08d01t06.flac:109e740bd2b569b8b064721e99ae9474
tommy2013-02-08d01t07.flac:e4a9397a1ae4119495a548f1d0a6ec58
tommy2013-02-08d01t08.flac:aac9dcf14d56647f192a19634b7cc120
tommy2013-02-08d01t09.flac:27e985d91737fbf02db02c3bbb00689c
tommy2013-02-08d02t01.flac:95acb1709af52f040b59cd6445f6d216
tommy2013-02-08d02t02.flac:a0fdbeb1aeb66357cece779ee565dca1
tommy2013-02-08d02t03.flac:89ef4856428ff76f28adf2913693e44d
tommy2013-02-08d02t04.flac:e8fb466de01dcc916619854274177e5b
tommy2013-02-08d02t05.flac:fc1c02508fb0b365b27bfe2cfef2eaaa
tommy2013-02-08d02t06.flac:a02170dc3db8bed28d08b6bf4549c18e
tommy2013-02-08d02t07.flac:37df3dd76ca03b9f386efe5ff5162ca4
tommy2013-02-08d02t08.flac:aa7e46dbde54d9ef95f1be1d8559b00c
tommy2013-02-08d03t01.flac:1d1d067fff5feb09daec88e42654529a
tommy2013-02-08d03t02.flac:beb94bfe7b1d10d4a6e543c12263a25b
tommy2013-02-08d03t03.flac:1d97eed0d3b4338fdad291b40e80ef11
tommy2013-02-08d03t04.flac:ae5fc3b7dc63cba2271901edae3d01e9
tommy2013-02-08d03t05.flac:add45ef41676cb328acb943a3eaaf36e
tommy2013-02-08d03t06.flac:b0da3ed1292edb91f4f81d95cac8cf39
tommy2013-02-08d03t07.flac:f8ada5e5f5f4bfd97f0d36aea8c642b6
tommy2013-02-08d03t08.flac:e16ca393563c0354658f1c1d70cea58b
tommy2013-02-08d03t09.flac:1e440ed4343ded01bd7c0086f4617f9d
tommy2013-02-08d03t10.flac:be8dd840f0890fd5b9ff65a44b4b68d2

Shntool

length expanded size cdr WAVE problems fmt ratio filename
3:58.14 42016172 B --- -- ---xx flac 0.3048 tommy2013-02-08d01t01.flac
7:36.54 80565452 B --- -- ---xx flac 0.4401 tommy2013-02-08d01t02.flac
5:10.44 54787532 B --- -- ---xx flac 0.4096 tommy2013-02-08d01t03.flac
9:11.12 97224668 B --- -- ---xx flac 0.4197 tommy2013-02-08d01t04.flac
5:42.20 60375884 B --- -- ---xx flac 0.4919 tommy2013-02-08d01t05.flac
8:57.61 94870316 B --- -- ---xx flac 0.4341 tommy2013-02-08d01t06.flac
5:53.18 62311580 B --- -- ---xx flac 0.4215 tommy2013-02-08d01t07.flac
5:45.69 61020332 B --- -- ---xx flac 0.4341 tommy2013-02-08d01t08.flac
5:19.22 56323388 B --- -- ---xx flac 0.5118 tommy2013-02-08d01t09.flac
8:45.01 92612396 B --- -- ---xx flac 0.4555 tommy2013-02-08d02t01.flac
13:49.39 146327372 B --- -- ---xx flac 0.4198 tommy2013-02-08d02t02.flac
10:03.22 106420988 B --- -- ---xx flac 0.5241 tommy2013-02-08d02t03.flac
1:39.10 17487164 B --- -- ---xx flac 0.3419 tommy2013-02-08d02t04.flac
5:59.20 63374684 B --- -- ---xx flac 0.4416 tommy2013-02-08d02t05.flac
4:04.69 43203932 B --- -- ---xx flac 0.3214 tommy2013-02-08d02t06.flac
11:46.10 124561964 B --- -- ---xx flac 0.3893 tommy2013-02-08d02t07.flac
5:27.71 57849836 B --- -- ---xx flac 0.2874 tommy2013-02-08d02t08.flac
10:27.44 110706332 B --- -- ---xx flac 0.4358 tommy2013-02-08d03t01.flac
8:41.11 91930316 B --- -- ---xx flac 0.3512 tommy2013-02-08d03t02.flac
3:27.32 36590108 B --- -- ---xx flac 0.5526 tommy2013-02-08d03t03.flac
0:34.01 5999996 B --- -- ---xx flac 0.5827 tommy2013-02-08d03t04.flac
4:23.48 46506140 B --- -- ---xx flac 0.5523 tommy2013-02-08d03t05.flac
2:52.35 30423164 B --- -- ---xx flac 0.5020 tommy2013-02-08d03t06.flac
7:33.53 80033900 B --- -- ---xx flac 0.3139 tommy2013-02-08d03t07.flac
7:05.54 75097052 B --- -- ---xx flac 0.4980 tommy2013-02-08d03t08.flac
3:57.46 41915036 B --- -- ---xx flac 0.2956 tommy2013-02-08d03t09.flac
5:39.17 59839628 B --- -- ---xx flac 0.3710 tommy2013-02-08d03t10.flac
173:52.72 1840375332 B 0.4231 (27 files)



























Checksumstommy2013-02-08d01t01.flac:38cf2c466872c3549c111c52e65c37d5
tommy2013-02-08d01t02.flac:e61fdb25dbc509d811fc29097068280b
tommy2013-02-08d01t03.flac:3fcd9113e30d95ff775753f1c4306cfc
tommy2013-02-08d01t04.flac:b7bfd5bf1008499712d89c189d6a637f
tommy2013-02-08d01t05.flac:c83f4eccc363362454f10fb4f11b51ee
tommy2013-02-08d01t06.flac:109e740bd2b569b8b064721e99ae9474
tommy2013-02-08d01t07.flac:e4a9397a1ae4119495a548f1d0a6ec58
tommy2013-02-08d01t08.flac:aac9dcf14d56647f192a19634b7cc120
tommy2013-02-08d01t09.flac:27e985d91737fbf02db02c3bbb00689c
tommy2013-02-08d02t01.flac:95acb1709af52f040b59cd6445f6d216
tommy2013-02-08d02t02.flac:a0fdbeb1aeb66357cece779ee565dca1
tommy2013-02-08d02t03.flac:89ef4856428ff76f28adf2913693e44d
tommy2013-02-08d02t04.flac:e8fb466de01dcc916619854274177e5b
tommy2013-02-08d02t05.flac:fc1c02508fb0b365b27bfe2cfef2eaaa
tommy2013-02-08d02t06.flac:a02170dc3db8bed28d08b6bf4549c18e
tommy2013-02-08d02t07.flac:37df3dd76ca03b9f386efe5ff5162ca4
tommy2013-02-08d02t08.flac:aa7e46dbde54d9ef95f1be1d8559b00c
tommy2013-02-08d03t01.flac:1d1d067fff5feb09daec88e42654529a
tommy2013-02-08d03t02.flac:beb94bfe7b1d10d4a6e543c12263a25b
tommy2013-02-08d03t03.flac:1d97eed0d3b4338fdad291b40e80ef11
tommy2013-02-08d03t04.flac:ae5fc3b7dc63cba2271901edae3d01e9
tommy2013-02-08d03t05.flac:add45ef41676cb328acb943a3eaaf36e
tommy2013-02-08d03t06.flac:b0da3ed1292edb91f4f81d95cac8cf39
tommy2013-02-08d03t07.flac:f8ada5e5f5f4bfd97f0d36aea8c642b6
tommy2013-02-08d03t08.flac:e16ca393563c0354658f1c1d70cea58b
tommy2013-02-08d03t09.flac:1e440ed4343ded01bd7c0086f4617f9d
tommy2013-02-08d03t10.flac:be8dd840f0890fd5b9ff65a44b4b68d2
TypeOther
Last seederLast activity 28:32 ago
Size742.58 MB (778652390 Bytes)
Added2013-02-09 11:59:10
Views0
Hits168
Snatched67 times
Upped byzmanatl
Num files
[See full list]
28 files
Peers
[See full list]
1 seeder, 0 leechers = 1 peer total

Add a comment

fmposters 2013-02-09 12:29:00
Nice recording there Cowboy

Tucker
brofan 2013-02-09 17:20:33
Thanks for the TT, Z-Man!
doug99 2013-02-09 22:57:27
Thank you very much.

Add a comment


http://etree.org : http://db.etree.org : http://forums.etree.org : http://wiki.etree.org : Legal : RSS Feed

Contents designed & maintained by the etree.org volunteers
1998-2014, etree.org, except where noted. All Rights Reserved.
Read our terms of service and privacy guidelines