bt.etree.org
etree.org Community Bittorrent Tracker
ArtistPatterson Hood and Friends
ShowPatterson Hood With Brad Morgan And Jay Gonzalez Eddie's Attic Decatur, Georgia 2/9/2013 (Schoeps CCM4V'S FOB)
Report this as
non-Trade-Friendly
Email us
Torrentpatterson2013-02-09.flac16.torrent (click to download)
Downloads aspatterson2013-02-09.flac16
Info hashd88229b7d58d63b6261c8cc4a30f015e2e1029f3
DescriptionPatterson Hood With Jay Gonzalez And Brad Morgan
Eddie's Attic
Decatur, Georgia
2/9/2013

Source: Schoeps CCM4V'S(din)>Lunatec V2>Benchmark AD2K>
Sound Devices 722 (24/48)
FOB/DFC/KFC/ZFC/AARP 9' From Stage, 5' High
DSP: Sound Devices 722>Sound Forge 9.0>CD Wave>flac(16)
Recorded By: Z-Man
Seeded By: Z-Man

Disc I 1st Set

01 Banter/Tuning
02 Bulldozers And Dirt
03 Disappear
04 Banter
05 12:01
06 Banter
07 Leavin' Time
08 Little Bonnie
09 Daddy Needs A Drink
10 Banter
11 Better Than The Truth
12 Banter
13 If I Was Jimmy Page
14 Uncle Disney
15 Betty Ford
16 After The Damage

Disc II 2nd Set

01 Banter
02 Heavy And Hangin'
03 Better Off Without
04 Pollyanna
05 Heat Lightning Rumbles In The Distance >
06 Come Back Little Star
07 Fifteen Days
Encore:
08 Banter
09 Righteous Path
10 Banter
11 *World Of Hurt
12 Banter
13 Back Of A Bible

* Dedicated To Craig Liske

Flac Fingerprint

patterson2013-02-09d01t01.flac:2354ba3e59ef7bef64052db98a46c4ea
patterson2013-02-09d01t02.flac:e71ce1016de82168a818a20ba99e46b2
patterson2013-02-09d01t03.flac:97bc551519afd6c2cf64f51327a61f74
patterson2013-02-09d01t04.flac:8ff6a30a8225b5c75f060f3135b1eb20
patterson2013-02-09d01t05.flac:2fab41cd7fbf2914608b447bc994104a
patterson2013-02-09d01t06.flac:2a9e1cceb07cc6d130a7640e5049dd2d
patterson2013-02-09d01t07.flac:c0ff241902c6f64156cc245efc6af851
patterson2013-02-09d01t08.flac:486bba3472e7207b79ff77272c742ac4
patterson2013-02-09d01t09.flac:2dd9395bf3bfdc5cb70507918724e570
patterson2013-02-09d01t10.flac:bb344088702b8348cec82d599bcc5ed5
patterson2013-02-09d01t11.flac:e338e426886ba863da49e450e9aa0c95
patterson2013-02-09d01t12.flac:6a7ec7b1caff58d6725f71ee1519d4c2
patterson2013-02-09d01t13.flac:520c882ad483d7442fee31c305749580
patterson2013-02-09d01t14.flac:8187120b3520e31a6b0372b2406f8c3c
patterson2013-02-09d01t15.flac:b6f00ecfc69fa931282ee0e9842b680c
patterson2013-02-09d01t16.flac:401dbedbaf573b128b516f4ca99013d5
patterson2013-02-09d02t01.flac:42034e1b1f5d558fe3c106dcca401b2e
patterson2013-02-09d02t02.flac:74b9496ab2309071eaa01d70d57d220d
patterson2013-02-09d02t03.flac:bf987c009788a2f416b3688df9cc7c7b
patterson2013-02-09d02t04.flac:e5e12ebdffecbde2cd1be4b3a1001406
patterson2013-02-09d02t05.flac:883d8c9d35108192fc209072b3bda8aa
patterson2013-02-09d02t06.flac:2f49a862a309556c563b58658fd6364a
patterson2013-02-09d02t07.flac:b0868b585a63193dfdde3a17910f4e2a
patterson2013-02-09d02t08.flac:abc695c0064d27cbbf3b509211d1b3bf
patterson2013-02-09d02t09.flac:a5fae9c1bb07e903c46f8918c147af06
patterson2013-02-09d02t10.flac:57658589bbc34d832342092d2139f23e
patterson2013-02-09d02t11.flac:7d8850fdad717223047eec67ee9b4070
patterson2013-02-09d02t12.flac:0cbba7924ff0cb0681a9d9e7a2da1513
patterson2013-02-09d02t13.flac:95c123824ca15bd04e12e477ebb6fce6

Shntool

length expanded size cdr WAVE problems fmt ratio filename
1:27.38 15436220 B --- -- ---xx flac 0.3702 patterson2013-02-09d01t01.flac
5:03.60 53590364 B --- -- ---xx flac 0.4416 patterson2013-02-09d01t02.flac
3:47.30 40113404 B --- -- ---xx flac 0.4871 patterson2013-02-09d01t03.flac
4:53.25 51744044 B --- -- ---xx flac 0.3869 patterson2013-02-09d01t04.flac
3:26.26 36399596 B --- -- ---xx flac 0.4262 patterson2013-02-09d01t05.flac
2:50.06 30002156 B --- -- ---xx flac 0.3743 patterson2013-02-09d01t06.flac
3:23.12 35837468 B --- -- ---xx flac 0.4730 patterson2013-02-09d01t07.flac
4:01.05 42524204 B --- -- ---xx flac 0.4878 patterson2013-02-09d01t08.flac
4:22.66 46372076 B --- -- ---xx flac 0.4009 patterson2013-02-09d01t09.flac
2:31.15 26671724 B --- -- ---xx flac 0.4138 patterson2013-02-09d01t10.flac
3:49.07 40412108 B --- -- ---xx flac 0.5075 patterson2013-02-09d01t11.flac
3:37.06 38292956 B --- -- ---xx flac 0.3892 patterson2013-02-09d01t12.flac
3:39.30 38702204 B --- -- ---xx flac 0.4551 patterson2013-02-09d01t13.flac
3:24.10 36009164 B --- -- ---xx flac 0.4404 patterson2013-02-09d01t14.flac
3:18.20 34974284 B --- -- ---xx flac 0.5071 patterson2013-02-09d01t15.flac
5:12.30 55107404 B --- -- ---xx flac 0.4274 patterson2013-02-09d01t16.flac
1:48.65 19204124 B --- -- ---xx flac 0.3908 patterson2013-02-09d02t01.flac
5:12.54 55163852 B --- -- ---xx flac 0.5105 patterson2013-02-09d02t02.flac
2:24.71 25568636 B --- -- ---xx flac 0.5553 patterson2013-02-09d02t03.flac
5:05.03 53809100 B --- -- ---xx flac 0.5598 patterson2013-02-09d02t04.flac
5:03.08 53468060 B --- -- ---xx flac 0.4166 patterson2013-02-09d02t05.flac
4:19.35 45769964 B --- -- ---xx flac 0.4790 patterson2013-02-09d02t06.flac
4:31.21 47853836 B --- -- ---xx flac 0.5466 patterson2013-02-09d02t07.flac
3:00.66 31907276 B --- -- ---xx flac 0.4331 patterson2013-02-09d02t08.flac
6:19.74 67029692 B --- -- ---xx flac 0.4778 patterson2013-02-09d02t09.flac
0:56.55 10007804 B --- -- ---xx flac 0.4945 patterson2013-02-09d02t10.flac
7:36.17 80478428 B --- -- ---xx flac 0.4835 patterson2013-02-09d02t11.flac
2:27.56 26062556 B --- -- ---xx flac 0.4101 patterson2013-02-09d02t12.flac
6:57.06 73572956 B --- -- ---xx flac 0.5055 patterson2013-02-09d02t13.flac
114:31.17 1212085660 B 0.4629 (29 files)



























Checksumspatterson2013-02-09d01t01.flac:2354ba3e59ef7bef64052db98a46c4ea
patterson2013-02-09d01t02.flac:e71ce1016de82168a818a20ba99e46b2
patterson2013-02-09d01t03.flac:97bc551519afd6c2cf64f51327a61f74
patterson2013-02-09d01t04.flac:8ff6a30a8225b5c75f060f3135b1eb20
patterson2013-02-09d01t05.flac:2fab41cd7fbf2914608b447bc994104a
patterson2013-02-09d01t06.flac:2a9e1cceb07cc6d130a7640e5049dd2d
patterson2013-02-09d01t07.flac:c0ff241902c6f64156cc245efc6af851
patterson2013-02-09d01t08.flac:486bba3472e7207b79ff77272c742ac4
patterson2013-02-09d01t09.flac:2dd9395bf3bfdc5cb70507918724e570
patterson2013-02-09d01t10.flac:bb344088702b8348cec82d599bcc5ed5
patterson2013-02-09d01t11.flac:e338e426886ba863da49e450e9aa0c95
patterson2013-02-09d01t12.flac:6a7ec7b1caff58d6725f71ee1519d4c2
patterson2013-02-09d01t13.flac:520c882ad483d7442fee31c305749580
patterson2013-02-09d01t14.flac:8187120b3520e31a6b0372b2406f8c3c
patterson2013-02-09d01t15.flac:b6f00ecfc69fa931282ee0e9842b680c
patterson2013-02-09d01t16.flac:401dbedbaf573b128b516f4ca99013d5
patterson2013-02-09d02t01.flac:42034e1b1f5d558fe3c106dcca401b2e
patterson2013-02-09d02t02.flac:74b9496ab2309071eaa01d70d57d220d
patterson2013-02-09d02t03.flac:bf987c009788a2f416b3688df9cc7c7b
patterson2013-02-09d02t04.flac:e5e12ebdffecbde2cd1be4b3a1001406
patterson2013-02-09d02t05.flac:883d8c9d35108192fc209072b3bda8aa
patterson2013-02-09d02t06.flac:2f49a862a309556c563b58658fd6364a
patterson2013-02-09d02t07.flac:b0868b585a63193dfdde3a17910f4e2a
patterson2013-02-09d02t08.flac:abc695c0064d27cbbf3b509211d1b3bf
patterson2013-02-09d02t09.flac:a5fae9c1bb07e903c46f8918c147af06
patterson2013-02-09d02t10.flac:57658589bbc34d832342092d2139f23e
patterson2013-02-09d02t11.flac:7d8850fdad717223047eec67ee9b4070
patterson2013-02-09d02t12.flac:0cbba7924ff0cb0681a9d9e7a2da1513
patterson2013-02-09d02t13.flac:95c123824ca15bd04e12e477ebb6fce6
TypePatterson Hood and Friends
Last seederLast activity 25:46 ago
Size535.11 MB (561101353 Bytes)
Added2013-02-10 02:48:57
Views0
Hits222
Snatched74 times
Upped byzmanatl
Num files30 files
File List
[Hide list]
filenamesizemd5
patterson2013-02-09d02t11.flac37.11 MBN/A
patterson2013-02-09d02t13.flac35.47 MBN/A
patterson2013-02-09d02t09.flac30.54 MBN/A
patterson2013-02-09d02t04.flac28.73 MBN/A
patterson2013-02-09d02t02.flac26.86 MBN/A
patterson2013-02-09d02t07.flac24.95 MBN/A
patterson2013-02-09d01t02.flac22.57 MBN/A
patterson2013-02-09d01t16.flac22.46 MBN/A
patterson2013-02-09d02t05.flac21.24 MBN/A
patterson2013-02-09d02t06.flac20.91 MBN/A
patterson2013-02-09d01t08.flac19.78 MBN/A
patterson2013-02-09d01t11.flac19.56 MBN/A
patterson2013-02-09d01t04.flac19.09 MBN/A
patterson2013-02-09d01t03.flac18.63 MBN/A
patterson2013-02-09d01t09.flac17.73 MBN/A
patterson2013-02-09d01t15.flac16.91 MBN/A
patterson2013-02-09d01t13.flac16.80 MBN/A
patterson2013-02-09d01t07.flac16.17 MBN/A
patterson2013-02-09d01t14.flac15.12 MBN/A
patterson2013-02-09d01t05.flac14.79 MBN/A
patterson2013-02-09d01t12.flac14.21 MBN/A
patterson2013-02-09d02t03.flac13.54 MBN/A
patterson2013-02-09d02t08.flac13.18 MBN/A
patterson2013-02-09d01t06.flac10.71 MBN/A
patterson2013-02-09d01t10.flac10.52 MBN/A
patterson2013-02-09d02t12.flac10.19 MBN/A
patterson2013-02-09d02t01.flac7.16 MBN/A
patterson2013-02-09d01t01.flac5.45 MBN/A
patterson2013-02-09d02t10.flac4.72 MBN/A
patterson2013-02-09.textfile.txt5.8 kBN/A
Peers
[See full list]
1 seeder, 0 leechers = 1 peer total

Add a comment

mikewillour 2013-02-10 04:47:58
Thanks.
Blues_Ken 2013-02-10 09:39:31
Thank you Zman
vanark 2013-02-10 09:56:19
Thanks, Z. Looking forward to listening to it today. I'll upload it to the LMA for you, too.

vanark 2013-02-10 10:42:31
Now on the LMA: http://archive.org/details/phood2013-02-09.z-man.ccm4v.flac16
vanark 2013-02-10 12:27:55
Heck of a lot of shhhshhhing going on ... A Patterson Hood show is definitely a quieter experience than a Truckers show. Some good stories along with the songs. Thanks for sharing, Steve.
kagee 2013-04-16 10:21:11
Excellent.

Thanks for taping & sharing.

Add a comment


http://etree.org : http://db.etree.org : http://forums.etree.org : http://wiki.etree.org : Legal : RSS Feed

Contents designed & maintained by the etree.org volunteers
1998-2014, etree.org, except where noted. All Rights Reserved.
Read our terms of service and privacy guidelines