Community Bittorrent Tracker
ArtistGrateful Dead
Report this as
Email us
Torrentgd70-06-04.123799.mtx.olsen.droncit.dusborne.flac16.torrent (click to download)
Downloads asgd70-06-04.123799.mtx.olsen.droncit.dusborne.flac16
Info hash0dfe30424adbb05417bcfac37e14d5390c893ce7
db link | Show | Source
DescriptionGrateful Dead
June 4, 1970
Fillmore West
San Francisco, Ca

***Acoustic Set Matrix***

Soundboard (shnid:119921)

received as wav file
conversion by: miogi

sbd > ?? > wav > audacity(snaps,crackles,pops) >
wavmerge > cdwav > tlh(flaclevel8) > flac16

***The entire acoustic set has been matrixed***


***Electric Set Matrix***

Soundboard (shnid:12135)

1 Disc Audio / 1 Disc SHN

This is all that currently circulates from the sbd.
I know this has been out since 1985, since I have had it that long.

CD>EAC>SHN done by charlie miller

***The last three songs of the electric set have been matrixed***


***Audience source for both sets***


Audience Recording by Gerry Olsen.

Sony TC-124 single-capstan portable cassette deck equipped with Sony F-99S One Point Stereo Dynamic Microphone IMP LOW
(hand-held). 120 minute BASF normal bias tape.

Lineage via Dan McDonald (
Master Audience Cassette->Nakamichi BX-1 (modified for flat transfer)-> Tascam DR-07MK2 (24-bit, 96kHz);
DC8Forensics was used to apply the NAB curve for normal bias cassettes. Converted to 16-bit, 44.1kHz
using 32-bit interpolation and a triangular high pass dither.

After the NAB curve in a multifilter I applied a virtual vale and overtone generator for lost
harmonics and used a channel blender to blend below 150 Hz to mono to minimize mic handling noise.

Notes from Gerry: "No encore that night, as "Baby Blue" calmed things down nicely and the "in for $3 Thursday night"
home audience was completely satisfied, plus the Dead still had three more nights to play that weekend...."
also, in regards to the question as to whether that was potato chips that you hear occasionally:
"My then 14 year old brother was on one side and a friend, ..., was on the other. Although my hands were otherwise
occupied, I probably snacked some too, plus my brother had a cough to boot."

Notes from Dan: This is a tape I can only call "charming." Just a totally enjoyable experience. Very nicely done, the
band is in fine form, and the tapers are having a great time. There are some cuts where the tape broke and where Gerry was
unable to get the whole song. There is also some distortion on certain songs - it's not in
the tape or the wav file, it's from the stage. There are comments from the audience and the band occasionally. It's most
noticeable during Attics of My Life, but also when Garcia hits certain notes with his vocals. I tried to minimize it but
it was too difficult to work with, so I left it as it is. I lowered coughing and potato chip bag noises when it distracted
from the music. Otherwise, I left it in. Sit back and relax, and spend an evening back in 1970. Many thanks to Gerry for
trusting me with the tapes. They were a pleasure to work with.

---Thank you Gerry Olsen for recording the show.
---Thank you miogi for your work with the acoustic sbd.
---Thank you Charlie Miller for your work on the electric sbd.
---Thank you Dan McDonald for your transfer and master of the audience.
---Thank you Germain for your advice, encouragement, guidance and seeding.

Matrix by dusborne using Adobe Audition CS6 and Audacity 2.0

Final Master by Dan McDonald


Grateful Dead acoustic:
101-s1t01 - Intro
102-s1t02 - Monkey and the Engineer
103-s1t03 - Deep Elem Blues
104-s1t04 - Candyman
105-s1t05 - Silver Threads and Golden Needles
106-s1t06 - Friend of the Devil
107-s1t07 - Black Peter
108-s1t08 - Cumberland Blues*
109-s1t09 - Wake Up Little Suzie*
110-s1t10 - Swing Low Sweet Chariot*
111-s1t11 - Uncle John's Band
*with David Nelson and John Dawson

Set IV - Grateful Dead electric:
401-s4t01 - Intro >
402-s4t02 - Casey Jones
403-s4t03 - Me and My Uncle
404-s4t04 - Hard to Handle
406-s4t05 - //It's a Sin
407-s4t06 - //China Cat Sunflower >
408-s4t07 - I Know You Rider
409-s4t08 - Attics of My Life
410-s4t09 - It's a Man's World
411-s4t10 - New, New Minglewood Blues
412-s4t11 - Good Lovin'
413-s4t12 - St. Stephen >
414-s4t13 - Not Fade Away >
415-s4t14 - Midnight Hour
416-s4t15 - It's All Over Now Baby Blue
Tagging notes:
Show information is embedded within the header of each flac file.
It will display on any player capable of directly playing flac
files. If converted to wav during processing, all tags will be
stripped, however audio data will remain unaffected. If you must
transcode to a lossy format, do so directly Flac > Lossy.
Use ffp to validate audio integrity.
Md5 values will change if tagging is altered.

dusborne 02-08-2013
length expanded size cdr WAVE problems fmt ratio filename
2:54.21 30743036 B --- -- ---xx flac 0.4839 gd70-06-04s1t01.flac
2:05.10 22073564 B --- -- ---xx flac 0.5036 gd70-06-04s1t02.flac
5:57.66 63130076 B --- -- ---xx flac 0.4828 gd70-06-04s1t03.flac
7:12.36 76289516 B --- -- ---xx flac 0.4652 gd70-06-04s1t04.flac
5:17.57 56052908 B --- -- ---xx flac 0.4774 gd70-06-04s1t05.flac
4:04.14 43074572 B --- -- ---xx flac 0.4819 gd70-06-04s1t06.flac
11:43.58 124145660 B --- -- ---xx flac 0.4475 gd70-06-04s1t07.flac
7:04.62 74939468 B --- -- ---xx flac 0.4957 gd70-06-04s1t08.flac
3:29.52 36989948 B --- -- ---xx flac 0.4946 gd70-06-04s1t09.flac
3:01.22 31980188 B --- -- ---xx flac 0.5420 gd70-06-04s1t10.flac
6:15.44 66253532 B --- -- ---xx flac 0.4876 gd70-06-04s1t11.flac
1:46.46 18806636 B --- -- ---xx flac 0.5471 gd70-06-04s4t01.flac
4:58.60 52708364 B --- -- ---xx flac 0.6133 gd70-06-04s4t02.flac
3:40.33 38885660 B --- -- ---xx flac 0.6056 gd70-06-04s4t03.flac
5:36.12 59298668 B --- -- ---xx flac 0.6019 gd70-06-04s4t04.flac
2:56.11 31072316 B --- -- ---xx flac 0.5633 gd70-06-04s4t05.flac
3:21.32 35531708 B --- -- ---xx flac 0.6444 gd70-06-04s4t06.flac
4:20.63 46012220 B --- -- ---xx flac 0.6411 gd70-06-04s4t07.flac
5:51.63 62064620 B --- -- ---xx flac 0.5759 gd70-06-04s4t08.flac
9:53.26 104666396 B --- -- ---xx flac 0.6331 gd70-06-04s4t09.flac
3:37.22 38330588 B --- -- ---xx flac 0.6240 gd70-06-04s4t10.flac
8:30.15 89999324 B --- -- ---xx flac 0.6086 gd70-06-04s4t11.flac
5:37.51 59566796 B --- -- ---xx flac 0.6140 gd70-06-04s4t12.flac
6:09.61 65235116 B --- -- ---xx flac 0.5517 gd70-06-04s4t13.flac
10:55.72 115711388 B --- -- ---xx flac 0.5676 gd70-06-04s4t14.flac
6:55.56 73337756 B --- -- ---xx flac 0.5016 gd70-06-04s4t15.flac
143:19.15 1516900024 B 0.5456 (26 files)
TypeGrateful Dead
Last seederLast activity 26:21 ago
Size789.46 MB (827809847 Bytes)
Added2013-02-10 16:10:09
Snatched771 times
Upped bygermain
Num files
[See full list]
32 files
[Hide list]
6 Seeder(s)
idle μtorrent 2.134 GB 0 B 100.00%
0 B/s N/A 8 days, 15:19:05 N/A 10:07 Mainline 7.7.3 291.91 MB 0 B 100.00%
0 B/s N/A 7:54:20 N/A 24:17 197.36 MB 0 B 100.00%
0 B/s N/A 5:49:27 N/A 19:22 53.22 MB 0 B 100.00%
0 B/s N/A 2 days, 19:51:30 N/A 26:21 libtorrent 0 B 0 B N/A 100.00%
N/A N/A 2:48:48 N/A 18:26 μtorrent 0 B 0 B N/A 100.00%
N/A N/A 17:01:55 N/A 31:21
0 of 6 firewalled (0%) 100.00%
[Hide list]
0 Leecher(s)

Add a comment

dusborne 2013-02-10 16:43:52
Thanks Gerry for recording and sharing the show.
Thanks Germain for fixing my tagging mistakes and creating new checksums.
Thanks Dan for all the technical stuff I learned from you on this one
au516 2013-02-10 18:58:07
thank you, love 70 and this looks tasty.
mmwarchives 2013-02-11 13:27:04
Grabbing this now & really looking forward to it as you you did wonders for the next night. You seem to really have a nice touch with these
early, archaic recordings. You should do more of them as the result seems to be worth the effort (& I know the effort must be huge on
these!!). Keep up the incredible work!!

mmwarchives 2013-02-11 13:28:53
Curious: why is the Electric set listed as 'Set IV'?? Was there an early show/late show deal that night??
balto7 2013-02-11 14:19:08
Thanks a lot! Hey mmwarchives, have a look at the aud. recording of the same night, posted just before this matrix. It lists all the sets.
skuhn2@ 2013-02-11 14:26:59
Gerry y0ur my hero!

John_Doe 2013-02-11 22:20:47
I noticed that the .jpg cd card says it was at the Fillmore East.

No biggie, just saying is all...
GerryO 2013-02-12 00:18:24
Many, many thanks to droncit and dusborne for making things even more magical.
123simone 2013-03-16 11:41:59
Thanks to all involved in making this beauty available.
jmy714 2015-01-30 08:45:26

Add a comment : : : : Legal : RSS Feed

Contents designed & maintained by the volunteers
1998-2014,, except where noted. All Rights Reserved.
Read our terms of service and privacy guidelines