bt.etree.org
etree.org Community Bittorrent Tracker
ArtistOther
ShowThe Window Panes Sweet Caroline's Winchester, Virginia February 08, 2013 Porter/Barberi Flac/Tagged
Report this as
non-Trade-Friendly
Email us
Torrenttwp2013-02-08.aud.porter.barberi.sbeok.flac16-t.torrent (click to download)
Downloads astwp2013-02-08.aud.porter.barberi.sbeok.flac16-t
Info hasheed68463dc9949c8e3db96f8fd174070ff768619
DescriptionThe Window Panes
Sweet Caroline's
Winchester, Virginia
February 08, 2013


dave porters masters > ftp secure > cdwave 198 > tlh > flac 8 > foobar2000(tagging info) > you


Disc 1:

01. Tuning/Chatter
02. Cold Rain & Snow
03. Dark Hollow
04. Jack-A-Roe
05. Bottle of Sunshine
06. Minglewood Blues
07. Chatter/Tuning
08. Come Around

Disc 2:

01. Better Way >
02. Franklin's Tower
03. Cassidy >
04. Eyes of the World
05. Peggy-O(Fennario)
06. Take It All In
07. I Know You Rider


The Window Panes share a deep love of Americana/Folk Rock/Jam Bands/Psychedelia forms of music.
Influences on the band, which can often be heard throughout their performances include:
the Grateful Dead, Bob Dylan, Keller Williams, Indecision, the Rolling Stones, and many others.

While the band enthusiastically enjoys covering such notable artists, they are far from simply being considered a cover band.

History:

David Drew Porter (guitarist/singer/songwriter) & Paul Morgan (bassist/songwriter) began performing as a folk duo on
New Years Eve 2009. Then, under the moniker, The Window Panes, in the Spring of 2011, they were discovered by renowned
mandolin player, vocalist & songwriter, Vince Diem, of bluegrass group, Flint Hollow, at a coffee shop in Winchester, VA.

Next, came Christopher White to check out the trio and he joined shortly thereafter adding distinctively tasteful leads on
guitar and unique vocals. Wanting to take the group to the next level, the search for a drummer ended once Evan Wolfe auditioned.
Now, with the 'Dire' Wolf and Paul providing a solid foundation to complete the line up, 'the Panes' went to the 'woodshed' to
hone the craft.

2012 has found the band playing many festivals and an increasing notoriety in the region. The arrival of Autumn
has ushered in the cool hand of Daniel Sutter, to fill the gap on drums left by the departure of Evan from the Shenandoah Valley.
These guys combine passionate sets of original music with some of their favorite bands. These guys just enjoy singin', a pickin'
and a grinin'.

So, who are The Window Panes?
Come out to one of our shows and decide for yourself.

The Window Panes are:

David Drew Porter (rhythm guitar/vocals)
Paul Morgan (bass/vocals)
Chris White (lead guitar/vocals)
Vince Diem (mandolin/vocals)
Daniel Sutter (drums/percussion)

length expanded size cdr WAVE problems fmt ratio filename
1:04.56 11421356 B --- -- ---xx flac 0.3579 twp2013-02-08d1t01.flac
6:23.60 67702364 B --- -- ---xx flac 0.6233 twp2013-02-08d1t02.flac
6:30.04 68805452 B --- -- ---xx flac 0.5335 twp2013-02-08d1t03.flac
7:30.50 79497644 B --- -- ---xx flac 0.5482 twp2013-02-08d1t04.flac
7:02.14 74473772 B --- -- ---xx flac 0.6081 twp2013-02-08d1t05.flac
5:53.40 62363324 B --- -- ---xx flac 0.6061 twp2013-02-08d1t06.flac
0:14.33 2547260 B --- -- ---xx flac 0.3690 twp2013-02-08d1t07.flac
5:41.30 60223004 B --- -- ---xx flac 0.5445 twp2013-02-08d1t08.flac
7:21.00 77792444 B --- -- ---xx flac 0.6043 twp2013-02-08d2t01.flac
9:25.66 99821276 B --- -- ---xx flac 0.5914 twp2013-02-08d2t02.flac
5:18.67 56252828 B --- -- ---xx flac 0.5903 twp2013-02-08d2t03.flac
9:49.63 104047820 B --- -- ---xx flac 0.5736 twp2013-02-08d2t04.flac
9:06.28 96380300 B --- -- ---xx flac 0.5036 twp2013-02-08d2t05.flac
9:33.41 101173676 B --- -- ---xx flac 0.5641 twp2013-02-08d2t06.flac
9:05.04 96147452 B --- -- ---xx flac 0.6280 twp2013-02-08d2t07.flac
100:01.31 1058649972 B 0.5746 (15 files)
Checksumstwp2013-02-08d1t01.flac:16cef2d44b9f6200683d0e18c24d01e1
twp2013-02-08d1t02.flac:5abcb3dd5b82b8ac005a994c46209597
twp2013-02-08d1t03.flac:079048f693904601b140b23eb969d2ca
twp2013-02-08d1t04.flac:4e478877512a1b717544276fead3510c
twp2013-02-08d1t05.flac:b4411f2e910fb5c43cd40a8530f003b1
twp2013-02-08d1t06.flac:b242eb98c6e3f90c299fe6aafa06d38e
twp2013-02-08d1t07.flac:15e0c0bfbdadafc93c78ccef5e8c11f7
twp2013-02-08d1t08.flac:5cce474c12b529d5362383302394d61f
twp2013-02-08d2t01.flac:8f8ce0068a0aa1b28fc1f0ec70051ffc
twp2013-02-08d2t02.flac:0f2be2d2cce875d787d0d505a87ec8cb
twp2013-02-08d2t03.flac:992f176fe87e306a2a79e5e781c36c64
twp2013-02-08d2t04.flac:3d2efcbc30810d2bc317a17269757a98
twp2013-02-08d2t05.flac:a867aeeefc883a2f2b1d2c44bea8dc82
twp2013-02-08d2t06.flac:1d3df0980503de3be0d7627ac255ef16
twp2013-02-08d2t07.flac:deac1ecca563f13f1829834fe243224e


16cef2d44b9f6200683d0e18c24d01e1 [shntool] twp2013-02-08d1t01.flac
5abcb3dd5b82b8ac005a994c46209597 [shntool] twp2013-02-08d1t02.flac
079048f693904601b140b23eb969d2ca [shntool] twp2013-02-08d1t03.flac
4e478877512a1b717544276fead3510c [shntool] twp2013-02-08d1t04.flac
b4411f2e910fb5c43cd40a8530f003b1 [shntool] twp2013-02-08d1t05.flac
b242eb98c6e3f90c299fe6aafa06d38e [shntool] twp2013-02-08d1t06.flac
15e0c0bfbdadafc93c78ccef5e8c11f7 [shntool] twp2013-02-08d1t07.flac
5cce474c12b529d5362383302394d61f [shntool] twp2013-02-08d1t08.flac
8f8ce0068a0aa1b28fc1f0ec70051ffc [shntool] twp2013-02-08d2t01.flac
0f2be2d2cce875d787d0d505a87ec8cb [shntool] twp2013-02-08d2t02.flac
992f176fe87e306a2a79e5e781c36c64 [shntool] twp2013-02-08d2t03.flac
3d2efcbc30810d2bc317a17269757a98 [shntool] twp2013-02-08d2t04.flac
a867aeeefc883a2f2b1d2c44bea8dc82 [shntool] twp2013-02-08d2t05.flac
1d3df0980503de3be0d7627ac255ef16 [shntool] twp2013-02-08d2t06.flac
deac1ecca563f13f1829834fe243224e [shntool] twp2013-02-08d2t07.flac


a44904d4015bcb51c867949875c4abd9 *shntool_len.txt
c49592da34cdd72cfd9439d61b958a81 *twp2013-02-08.ffp
59ad681b1f9ac332a3f438d27bd889ae *twp2013-02-08.m3u
5f21c558aacd2a1c9ba7adbfd5a1c5c0 *twp2013-02-08.st5
76196938b7551369e0ea5288c6b6691a *twp2013-02-08.txt
930f6e05f68b05fd3342ee327f5de8ab *twp2013-02-08d1t01.flac
1f71a399c3f75cdae18f4733d2d85d57 *twp2013-02-08d1t02.flac
0150e21e6502110a072b072f9a52578a *twp2013-02-08d1t03.flac
4d8175862148bdecfe6ff2337d9b827d *twp2013-02-08d1t04.flac
bddf6a6d25625398700a327b8cea8c03 *twp2013-02-08d1t05.flac
f7e458ac68196c181a228d2e9bdb0ca1 *twp2013-02-08d1t06.flac
44a08d2797d389acc5246e21ba23cef7 *twp2013-02-08d1t07.flac
5256831e78d967acf9b7520ea9211fc0 *twp2013-02-08d1t08.flac
d476f3274d24ed2c1430c23d5c66948c *twp2013-02-08d2t01.flac
000e4f2cb6997aa47d33a4c8d13f2c9b *twp2013-02-08d2t02.flac
b6c004bc65fd2b81c26a095f67c67c02 *twp2013-02-08d2t03.flac
ec1028ac060881d7127b096319f0d5ac *twp2013-02-08d2t04.flac
f42488bb097df81e024549c890e2261f *twp2013-02-08d2t05.flac
616799bac583d22f73cf1be30b072df5 *twp2013-02-08d2t06.flac
4de21189e69857c7f2790ae719bb79d4 *twp2013-02-08d2t07.flac
TypeOther
Last seederLast activity 120 days, 15:51:07 ago
Size580.15 MB (608331438 Bytes)
Added2013-02-10 16:25:03
Views1
Hits133
Snatched13 times
Upped byacesbacktoback
Num files
[See full list]
21 files
Seeders
[Hide list]
0 Seeder(s)
Leechers
[Hide list]
0 Leecher(s)

Add a comment

acesbacktoback 2013-02-10 17:10:17
http://bt.playinintheband.com/index.php?page=torrent-details&id=eed68463dc9949c8e3db96f8fd174070ff768619
acesbacktoback 2013-02-10 17:16:41
was just conversing with Paul from TWP and there may be a need for song title adjustments. i may have made a minor boo boo here but dont know for sure. will in an hour or so and will notify. otherwise enjoy as these fellas know how to jam it up and down....

Add a comment


http://etree.org : http://db.etree.org : http://forums.etree.org : http://wiki.etree.org : Legal : RSS Feed

Contents designed & maintained by the etree.org volunteers
1998-2014, etree.org, except where noted. All Rights Reserved.
Read our terms of service and privacy guidelines