bt.etree.org
etree.org Community Bittorrent Tracker
ArtistOther
ShowDylan Leblanc Eddie's Attic Decatur, Georgia 2/9/2013 (Schoeps CCM4V'S FOB)
Report this as
non-Trade-Friendly
Email us
Torrentdylan2013-02-09.flac16.torrent (click to download)
Downloads asdylan2013-02-09.flac16
Info hashb238e5412d6fd3d6e102ee207b3e499bf5d9870b
DescriptionDylan Leblanc
Eddie's Attic
Decatur, Georgia
2/9/2013

Source: Schoeps CCM4V'S(din)>Lunatec V2>Benchmark AD2K>
Sound Devices 722 (24/48)
FOB/DFC/KFC/ZFC/AARP 9' From Stage, 5' High
DSP: Sound Devices 722>Sound Forge 9.0>CD Wave>flac(16)
Recorded By: Z-Man
Seeded By: Z-Man

Disc I

01 Greeting
02 ?
03 In My Heart
04 The Lonesome Walks
05 ?
06 Love Is Like Water
07 ?
08 Cryin' Time
09 ?
10 Showdown

Dylan Leblanc - Acoustic Guitar And Vocals
Jeremy Gibson - Drums

Flac Fingerprint

dylan2013-02-09d01t01.flac:e72f8029eb26ad13fed5afa32e91b6af
dylan2013-02-09d01t02.flac:e2fb12443d2c9d0f4b1ae9f09a6ddf70
dylan2013-02-09d01t03.flac:501b778e6a12254a483d62d102212104
dylan2013-02-09d01t04.flac:369da3863f7f11228bb74e682f6ff04e
dylan2013-02-09d01t05.flac:8c7e33b5994fe9e22871124247535555
dylan2013-02-09d01t06.flac:5e2d983fb772dbf5b6d47e728cfccd56
dylan2013-02-09d01t07.flac:fc5c83e46fc79e71863af1875a239761
dylan2013-02-09d01t08.flac:a2af16a8681a1c8b8a84b81c1c9e21f2
dylan2013-02-09d01t09.flac:5bd0cd37e11ef2772f94fcdec4d9f727
dylan2013-02-09d01t10.flac:27e356bb435542ddc70a1fbc71552676

Shntool

length expanded size cdr WAVE problems fmt ratio filename
0:32.54 5771852 B --- -- ---xx flac 0.3986 dylan2013-02-09d01t01.flac
4:38.20 49086284 B --- -- ---xx flac 0.4462 dylan2013-02-09d01t02.flac
4:08.55 43876604 B --- -- ---xx flac 0.4172 dylan2013-02-09d01t03.flac
3:54.06 41291756 B --- -- ---xx flac 0.4317 dylan2013-02-09d01t04.flac
3:54.70 41442284 B --- -- ---xx flac 0.4263 dylan2013-02-09d01t05.flac
3:23.37 35896268 B --- -- ---xx flac 0.4044 dylan2013-02-09d01t06.flac
4:00.49 42451292 B --- -- ---xx flac 0.4348 dylan2013-02-09d01t07.flac
4:03.52 42987548 B --- -- ---xx flac 0.4676 dylan2013-02-09d01t08.flac
4:46.68 50610380 B --- -- ---xx flac 0.4443 dylan2013-02-09d01t09.flac
4:16.15 45193724 B --- -- ---xx flac 0.5059 dylan2013-02-09d01t10.flac
37:39.51 398607992 B 0.4426 (10 files)






























Checksumsdylan2013-02-09d01t01.flac:e72f8029eb26ad13fed5afa32e91b6af
dylan2013-02-09d01t02.flac:e2fb12443d2c9d0f4b1ae9f09a6ddf70
dylan2013-02-09d01t03.flac:501b778e6a12254a483d62d102212104
dylan2013-02-09d01t04.flac:369da3863f7f11228bb74e682f6ff04e
dylan2013-02-09d01t05.flac:8c7e33b5994fe9e22871124247535555
dylan2013-02-09d01t06.flac:5e2d983fb772dbf5b6d47e728cfccd56
dylan2013-02-09d01t07.flac:fc5c83e46fc79e71863af1875a239761
dylan2013-02-09d01t08.flac:a2af16a8681a1c8b8a84b81c1c9e21f2
dylan2013-02-09d01t09.flac:5bd0cd37e11ef2772f94fcdec4d9f727
dylan2013-02-09d01t10.flac:27e356bb435542ddc70a1fbc71552676
TypeOther
Last seederLast activity 1:50:05 ago
Size168.26 MB (176431246 Bytes)
Added2013-02-10 19:17:57
Views0
Hits111
Snatched17 times
Upped byzmanatl
Num files
[See full list]
11 files
Seeders
[Hide list]
0 Seeder(s)
Leechers
[Hide list]
0 Leecher(s)

Add a comment

dfries 2013-02-10 19:57:25
This was good.

obh2o 2013-02-13 01:13:41
Many thanks again Z-Man !!

Additions to the setlist-

01 Greeting
02 ?
03 In My Heart
04 Lonesome Waltz
05 Washboard Lisa (1)
06 Love Is Like Water
07 ?
08 Cryin' Time
09 Part One: The End
10 Showdown

(1) - Grayson Capps

Add a comment


http://etree.org : http://db.etree.org : http://forums.etree.org : http://wiki.etree.org : Legal : RSS Feed

Contents designed & maintained by the etree.org volunteers
1998-2014, etree.org, except where noted. All Rights Reserved.
Read our terms of service and privacy guidelines