bt.etree.org
etree.org Community Bittorrent Tracker
ArtistPhish
Showph1998-07-03u89
Report this as
non-Trade-Friendly
Email us
Torrentph1998-07-03u89.torrent (click to download)
Downloads asph1998-07-03u89
Info hash5c5135b182f690d129743fe9ed473c783d80c052
db linkhttp://db.etree.org/shn/123811 | Show | Source
DescriptionPhish - July 3, 1998
Dyrskuepladsen, Ringe - Fyn, Denmark

Recording Info:
Neumann U89 -> Sonosax SX-M2 -> Sony SBM-1 -> Dat (Tascam DA-P1/48k)

Transfer Info:
Dat (Tascam DA-20) -> Tascam SS-R05 -> Samplitude Professional v11.2.1 -> FLAC
(2 Discs Audio / 1 Disc FLAC)

All Transfers and Mastering By Charlie Miller
charliemiller87@earthlink.net
February 11, 2013

Notes:
-- Disc change is seamless

Set 1:
d1t01 - Intro
d1t02 - Stash
d1t03 - Beauty Of My Dreams ->
d1t04 - Sample In A Jar
d1t05 - Guyute
d1t06 - Also Sprach Zarathustra ->
d1t07 - Down With Disease
d1t08 - Limb By Limb
d1t09 - Water In The Sky ->
d1t10 - My Soul
d2t01 - You Enjoy Myself ->
d2t02 - A Day In The Life


SHNTOOL OUTPUT:
length expanded size cdr WAVE problems fmt ratio filename
1:39.13 17494220 B --- -- ---xx flac 0.3832 ph1998-07-03d1t01.flac
9:35.72 101599388 B --- -- ---xx flac 0.5793 ph1998-07-03d1t02.flac
3:11.46 33800636 B --- -- ---xx flac 0.5747 ph1998-07-03d1t03.flac
5:21.16 56662076 B --- -- ---xx flac 0.5975 ph1998-07-03d1t04.flac
10:04.74 106719692 B --- -- ---xx flac 0.5449 ph1998-07-03d1t05.flac
10:29.41 111052076 B --- -- ---xx flac 0.5344 ph1998-07-03d1t06.flac
9:03.19 95829932 B --- -- ---xx flac 0.5943 ph1998-07-03d1t07.flac
6:25.49 68029292 B --- -- ---xx flac 0.5718 ph1998-07-03d1t08.flac
2:45.61 29249516 B --- -- ---xx flac 0.5708 ph1998-07-03d1t09.flac
5:45.09 60879212 B --- -- ---xx flac 0.6058 ph1998-07-03d1t10.flac
15:31.12 164256668 B --- -- ---xx flac 0.5572 ph1998-07-03d2t01.flac
6:08.46 65023436 B --- -- ---xx flac 0.5647 ph1998-07-03d2t02.flac
86:02.08 910596144 B 0.5645 (12 files)
Checksumsph1998-07-03d1t01.flac:7231ab573c60cb1efa9b5054eeb78499<br />
ph1998-07-03d1t02.flac:dc50ca2d9006e3a72b8494355ca91c93<br />
ph1998-07-03d1t03.flac:7c4dc3ff31acf67e0ca493cf796d6e75<br />
ph1998-07-03d1t04.flac:07dd092c0e2c6f1c3d897c72b33ec5d9<br />
ph1998-07-03d1t05.flac:11c99cdd011c23cf8f779f849c6702cb<br />
ph1998-07-03d1t06.flac:f20bcbed37e51620541b4814039b6e89<br />
ph1998-07-03d1t07.flac:d43fa55d94bb202b742d911c847b656a<br />
ph1998-07-03d1t08.flac:6fb22b981ecc45c1e96e7d658e37ad88<br />
ph1998-07-03d1t09.flac:daf0285a1a1ffb572034824c8224ddab<br />
ph1998-07-03d1t10.flac:57e08a562d440cb73e77125a86c9ecd4<br />
ph1998-07-03d2t01.flac:14aaaea8d755b20eca537fa0f9b855fa<br />
ph1998-07-03d2t02.flac:1512eaee7da5ef1573d878c38a6da952<br />
TypePhish
Last seederLast activity 4 days, 14:40:04 ago
Size490.20 MB (514010730 Bytes)
Added2013-02-11 23:38:13
Views5
Hits514
Snatched323 times
Upped bycharlie miller
Num files
[See full list]
15 files
Peers
[See full list]
1 seeder, 0 leechers = 1 peer total

Add a comment

<< Prev      Next >>
1 - 20 | 21 - 21

spiral517 2013-02-23 23:39:22
Wow. This recording sounds very up close and wonderfully clear and full. Nice!

1 - 20 | 21 - 21
<< Prev      Next >>

Add a comment


http://etree.org : http://db.etree.org : http://forums.etree.org : http://wiki.etree.org : Legal : RSS Feed

Contents designed & maintained by the etree.org volunteers
1998-2014, etree.org, except where noted. All Rights Reserved.
Read our terms of service and privacy guidelines