bt.etree.org
etree.org Community Bittorrent Tracker
ArtistGrateful Dead
Showgd82-12-26.81602.sbd.miller.t-flac16
Report this as
non-Trade-Friendly
Email us
Torrentgd82-12-26.81602.sbd.miller.sbeok.t-flac16.torrent (click to download)
Downloads asgd82-12-26.81602.sbd.miller.sbeok.t-flac16
Info hash44b07cd613a422ea19511e72d0ed9d3ce43717fa
db linkhttp://db.etree.org/shn/81602 | Show | Source
DescriptionThis is a tagged version fo shnid: 81602

Grateful Dead
December 26, 1982
Oakland Auditorium
Oakland, CA

Recording Info:
SBD -> Cassette Master (Nakamichi 550/Maxell XLIIS-90)

Transfer Info:
Cassette Master (Tascam 122mkII) -> Apogee MiniMe (24bit/48k) ->
Samplitude Professional v8.01 -> FLAC/16
(2 Discs Audio / 2 Discs FLAC)

All Transfers and Mastering By Charlie Miller
charliemiller87@earthlink.net
January 10, 2007

Notes:
-- Set 2 is seamless
-- Minglewood Blues mix is all over the place
-- Thanks to Paul Scotton and Joani Walker for the Cassettes
_____________________________________________________________________________

--Set 1--
101-d1t01 - New Minglewood Blues
102-d1t02 - Peggy-O
103-d1t03 - Mama Tried ->
104-d1t04 - Mexicali Blues
105-d1t05 - Althea
106-d1t06 - Cassidy
107-d1t07 - Candyman
108-d1t08 - It's All Over Now
109-d1t09 - China Cat Sunflower ->
110-d1t10 - I Know You Rider

--Set 2--
201-d1t11 - Touch of Grey
202-d2t01 - Far From Me ->
203-d2t02 - Estimated Prophet ->
204-d2t03 - Eyes of the World ->
205-d2t04 - Drums ->
206-d2t05 - Space ->
207-d2t06 - Throwing Stones ->
208-d2t07 - Wharf Rat ->
209-d2t08 - Around & Around ->
210-d2t09 - Good Lovin'

--Encore--
211-d2t10 - Keep Your Day Job
_____________________________________________________________________________

Tagging notes:
Show information is embedded within the header of each flac file.
It will display on any player capable of directly playing flac files.
If converted to wav during processing, all tags will be stripped,
however audio data will remain unaffected.
If you must transcode to a lossy format, do so directly Flac > Lossy.
Use ffp to validate audio integrity.
Md5 values will change if tagging is altered.
B. Proctor 4-15-11
_____________________________________________________________________________

SHNTOOL OUTPUT:
length expanded size cdr WAVE problems filename
8:04.30 85448204 --- -- ----- gd82-12-26d1t01.wav
6:48.40 72065324 --- -- ----- gd82-12-26d1t02.wav
2:36.24 27574892 --- -- ----- gd82-12-26d1t03.wav
4:58.42 52666028 --- -- ----- gd82-12-26d1t04.wav
8:11.35 86694764 --- -- ----- gd82-12-26d1t05.wav
5:05.33 53879660 --- -- ----- gd82-12-26d1t06.wav
6:31.38 69061820 --- -- ----- gd82-12-26d1t07.wav
9:08.39 96758972 --- -- ----- gd82-12-26d1t08.wav
5:19.26 56332796 --- -- ----- gd82-12-26d1t09.wav
6:33.06 69339356 --- -- ----- gd82-12-26d1t10.wav
7:16.56 77042156 --- -- ----- gd82-12-26d1t11.wav
4:20.73 46035740 --- -- ----- gd82-12-26d2t01.wav
12:04.15 127748924 --- -- ----- gd82-12-26d2t02.wav
9:03.50 95902844 --- -- ----- gd82-12-26d2t03.wav
7:58.03 84326300 --- -- ----- gd82-12-26d2t04.wav
5:32.59 58703612 --- -- ----- gd82-12-26d2t05.wav
7:28.00 79027244 --- -- ----- gd82-12-26d2t06.wav
10:34.37 111924668 --- -- ----- gd82-12-26d2t07.wav
3:51.73 40920140 --- -- ----- gd82-12-26d2t08.wav
8:27.31 89507756 --- -- ----- gd82-12-26d2t09.wav
5:12.42 55135628 --- -- ----- gd82-12-26d2t10.wav
145:08.02 1536096828 B (totals for 21 files)
Checksumsgd82-12-26d1t01.flac:2f1b61364bde3211f6f30e29cb21b7c5<br />
gd82-12-26d1t02.flac:b4dd4582e63c5fa61a6f5adbc3711423<br />
gd82-12-26d1t03.flac:8bd641d0378ebfca0e62cecda9852982<br />
gd82-12-26d1t04.flac:354ffed54fb830d42b03bc833605c3c5<br />
gd82-12-26d1t05.flac:21fbf1fc359088477fcb4a0b17fdf897<br />
gd82-12-26d1t06.flac:8e5c6a118a4513114cc29db257f79536<br />
gd82-12-26d1t07.flac:39b279df761171c91e087a885c1655a4<br />
gd82-12-26d1t08.flac:ac45ff4fdd332bb10f9c8f5910262c82<br />
gd82-12-26d1t09.flac:bc3b7e13839ac735dfe153b685360ce7<br />
gd82-12-26d1t10.flac:611f08425b27c92cb46be73086885bf4<br />
gd82-12-26d1t11.flac:5632195efb40846544e60a31e24677a8<br />
gd82-12-26d2t01.flac:62a72adfc571805a42889ce209e182d2<br />
gd82-12-26d2t02.flac:8250755a14559c1db036701325dd096a<br />
gd82-12-26d2t03.flac:0f72ea8b248198ffc686b2c35e38fd6e<br />
gd82-12-26d2t04.flac:0cce6beeb7e0d7d9e66147fed23f0ee3<br />
gd82-12-26d2t05.flac:ef968e0ca0ee97a9b297e2875ecad29d<br />
gd82-12-26d2t06.flac:0e473abcedbc25c93f4a46ab80a6664d<br />
gd82-12-26d2t07.flac:d1f60878e1fe927186ce2af596f8f5e6<br />
gd82-12-26d2t08.flac:c47bd5a7a856dec653912f0211f81527<br />
gd82-12-26d2t09.flac:bb84c48c1f48e18be98a42c2e23f0022<br />
gd82-12-26d2t10.flac:3fc68089d066e9b76423145ee7067433<br />
TypeGrateful Dead
Last seederLast activity 17:56 ago
Size956.09 MB (1002531212 Bytes)
Added2013-02-12 07:51:09
Views0
Hits683
Snatched462 times
Upped bygermain
Num files24 files
File List
[Hide list]
filenamesizemd5
gd82-12-26.081602.txt3.5 kBN/A
gd82-12-26.81602.tagged.md51.3 kBN/A
gd82-12-26.ffp1.1 kBN/A
gd82-12-26d1t01.flac52.46 MBN/A
gd82-12-26d1t02.flac44.15 MBN/A
gd82-12-26d1t03.flac17.87 MBN/A
gd82-12-26d1t04.flac33.68 MBN/A
gd82-12-26d1t05.flac54.51 MBN/A
gd82-12-26d1t06.flac34.16 MBN/A
gd82-12-26d1t07.flac42.70 MBN/A
gd82-12-26d1t08.flac61.64 MBN/A
gd82-12-26d1t09.flac35.58 MBN/A
gd82-12-26d1t10.flac44.51 MBN/A
gd82-12-26d1t11.flac50.40 MBN/A
gd82-12-26d2t01.flac29.97 MBN/A
gd82-12-26d2t02.flac79.21 MBN/A
gd82-12-26d2t03.flac61.11 MBN/A
gd82-12-26d2t04.flac47.27 MBN/A
gd82-12-26d2t05.flac29.92 MBN/A
gd82-12-26d2t06.flac50.58 MBN/A
gd82-12-26d2t07.flac68.39 MBN/A
gd82-12-26d2t08.flac25.87 MBN/A
gd82-12-26d2t09.flac56.33 MBN/A
gd82-12-26d2t10.flac35.77 MBN/A
Peers
[See full list]
3 seeders, 0 leechers = 3 peers total

Add a comment

MattyE 2013-02-12 19:31:41
Thanks!

Add a comment


http://etree.org : http://db.etree.org : http://forums.etree.org : http://wiki.etree.org : Legal : RSS Feed

Contents designed & maintained by the etree.org volunteers
1998-2014, etree.org, except where noted. All Rights Reserved.
Read our terms of service and privacy guidelines