bt.etree.org
etree.org Community Bittorrent Tracker
ArtistGrateful Dead
Showge82-12-26.95953.sbd-set2.miller.t-flac16
Report this as
non-Trade-Friendly
Email us
Torrentgd82-12-26.95953.sbd-set2.miller.sbeok.t-flac16.torrent (click to download)
Downloads asgd82-12-26.95953.sbd-set2.miller.sbeok.t-flac16
Info hashe1e4d8b768f611a9d2cac00734b7948ceaa83925
db linkhttp://db.etree.org/shn/95953 | Show | Source
DescriptionThis is a tagged version of shnid: 95953

Grateful Dead
December 26, 1982
Oakland Auditorium
Oakland, CA

**Set 2 Only**

Recording Info:
SBD -> PCM

Transfer Info:
PCM -> Peak -> Samplitude Professional v10.1 -> FLAC
(2 Discs Audio / 1 Disc FLAC)

All Transfers and Mastering By Charlie Miller
charliemiller87@earthlink.net
November 20, 2008

Notes:
-- Disc change is seamless (put it wherever you want)
-- Thanks to Michael Kirschner for lending me his PCM tapes
_____________________________________________________________________________

--Set 2--
201-s2t01 - Touch of Grey
202-s2t02 - Far from Me ->
203-s2t03 - Estimated Prophet ->
204-s2t04 - Eyes of the World ->
205-s2t05 - Drums ->
206-s2t06 - Space ->
207-s2t07 - Throwing Stones ->
208-s2t08 - Wharf Rat ->
209-s2t09 - Around & Around ->
210-s2t10 - Good Lovin'

--Encore--
211-s2t11 - Keep Your Day Job
_____________________________________________________________________________

Tagging notes:
Show information is embedded within the header of each flac file.
It will display on any player capable of directly playing flac files.
If converted to wav during processing, all tags will be stripped,
however audio data will remain unaffected.
If you must transcode to a lossy format, do so directly Flac > Lossy.
Use ffp to validate audio integrity.
Md5 values will change if tagging is altered.
B. Proctor 4-15-11
_____________________________________________________________________________

SHNTOOL OUTPUT:
length expanded size cdr WAVE problems filename
7:46.73 82374140 --- -- ----- gd82-12-26s2t01.wav
4:05.56 43349756 --- -- ----- gd82-12-26s2t02.wav
11:49.23 125121740 --- -- ----- gd82-12-26s2t03.wav
9:07.48 96603740 --- -- ----- gd82-12-26s2t04.wav
7:51.29 83152652 --- -- ----- gd82-12-26s2t05.wav
5:36.61 59413916 --- -- ----- gd82-12-26s2t06.wav
8:09.04 86269052 --- -- ----- gd82-12-26s2t07.wav
10:26.34 110506412 --- -- ----- gd82-12-26s2t08.wav
3:49.67 40553228 --- -- ----- gd82-12-26s2t09.wav
8:23.44 88832732 --- -- ----- gd82-12-26s2t10.wav
5:10.33 54761660 --- -- ----- gd82-12-26s2t11.wav
82:17.22 870939028 B (totals for 11 files)
Checksumsgd82-12-26s2t01.flac:b472eed58708baf225820b4680a7bf38<br />
gd82-12-26s2t02.flac:47b896131a7ddc985cac99e64485e405<br />
gd82-12-26s2t03.flac:f5b397447407c553fafe4bb113c039c2<br />
gd82-12-26s2t04.flac:5077b104b9ce9172629e8fe971f0783f<br />
gd82-12-26s2t05.flac:bfd12ce3f466f4d5df5b6356b8569e39<br />
gd82-12-26s2t06.flac:7232314989573ec05305b2c23d830c9c<br />
gd82-12-26s2t07.flac:90b4fdf4b7848961d2effeaba2882a04<br />
gd82-12-26s2t08.flac:260ea0f9ea6f048acdb00795e92d72fc<br />
gd82-12-26s2t09.flac:23761ddeef3551446739664ae864b6f3<br />
gd82-12-26s2t10.flac:4d24bcbc332593b908cbb3cc400c1b2c<br />
gd82-12-26s2t11.flac:b537a9331fe9092c160e7e1ed76ea7cc<br />
TypeGrateful Dead
Last seederLast activity 11:18 ago
Size502.11 MB (526498529 Bytes)
Added2013-02-12 07:55:10
Views0
Hits366
Snatched183 times
Upped bygermain
Num files14 files
File List
[Hide list]
filenamesizemd5
gd82-12-26.095953.txt2.4 kBN/A
gd82-12-26.95953.tagged.md5729 BN/A
gd82-12-26.ffp605 BN/A
gd82-12-26s2t01.flac49.20 MBN/A
gd82-12-26s2t02.flac27.03 MBN/A
gd82-12-26s2t03.flac73.77 MBN/A
gd82-12-26s2t04.flac60.98 MBN/A
gd82-12-26s2t05.flac41.98 MBN/A
gd82-12-26s2t06.flac23.47 MBN/A
gd82-12-26s2t07.flac50.20 MBN/A
gd82-12-26s2t08.flac63.34 MBN/A
gd82-12-26s2t09.flac24.75 MBN/A
gd82-12-26s2t10.flac53.15 MBN/A
gd82-12-26s2t11.flac34.24 MBN/A
Peers
[See full list]
2 seeders, 0 leechers = 2 peers total

No comments yet

Add a comment


http://etree.org : http://db.etree.org : http://forums.etree.org : http://wiki.etree.org : Legal : RSS Feed

Contents designed & maintained by the etree.org volunteers
1998-2014, etree.org, except where noted. All Rights Reserved.
Read our terms of service and privacy guidelines