bt.etree.org
etree.org Community Bittorrent Tracker
ArtistOther
ShowTruett Lollis Band Darwin's Burgers And Blues Marietta, Georgia 2/11/2013 (Schoeps CCM4V'S FOB)
Report this as
non-Trade-Friendly
Email us
Torrenttruett2013-02-11.flac16.torrent (click to download)
Downloads astruett2013-02-11.flac16
Info hash75e097f9ecc814ca093f5e8ec9da601659283567
DescriptionTruett Lollis Band
Darwins Burgers And Blues
Marietta, Georgia
2/11/2013

Source: Schoeps CCM4V'S(din)>Lunatec V2>Benchmark AD2K>
Sound Devices 722 (24/48)
FOB/DFC/KFC/ZFC/AARP Stage Lip, 6' High
DSP: Sound Devices 722>Sound Forge 9.0>CD Wave>flac(16)
Recorded By: Z-Man
Seeded By: Z-Man

Disc I

01 *#Blues Jam
02 *#@Valerie
03 Band Introductions and Banter
04 *^+ ?
05 *^+%Statesboro Blues
06 *$Feelin' Alright
07 *$!Can't You See

Disc II

Anthony Gomes Band:

01 Introduction/Greeting/Tuning
02 Room 414
03 One Last Time
04 I'm Goin' Down
Truett Lollis Band:
05 *&Hold On To What You Got
06 *@Lonely Night In Georgia
07 Banter
08 A*Sometimes Love Ain't Enough
09 AB*^Use Me >
10 AB*^Whole Lotta Love >
11 AB*^Use Me >
12 AB*^For What It's Worth >
13 AB*^Use Me
14 Band Introductions/Outro

* With John Pagano On Guitar
# With Seth Waters On Bass
@ With Madison Laughridge On Vocals
^ With Brendon McMackin On Harmonica
+ With Mike Rock - Guitar
% With Matt Crawford Of Molly Hatchett On Drums
$ With Logan Cary On Guitar
! With Harper Harris On Harmonica
& With Big D Harper On Drums
A With Anthony Crane On Vocals
B With Anthony Gomes On Guitar

Truett Lollis - Guitar And Vocals
Johnny Norwood - Bass And Vocals
Jody White - Drums
Tony Arissi - Percussion

Flac Fingerprint

truett2013-02-11d01t01.flac:ef615a4648dac9313db33f85f7dbc9a3
truett2013-02-11d01t02.flac:76c0ac5950e11c83cca080e9c6abcd9a
truett2013-02-11d01t03.flac:58ba56befa3f6d8965945161cc7b236c
truett2013-02-11d01t04.flac:50fe5c10e9a51624d881cecff0e5f9da
truett2013-02-11d01t05.flac:9145d214ed1e0a726ef4317dc25c8f4d
truett2013-02-11d01t06.flac:e3e12bd897b2b5ba1c9907b2bc71c2e9
truett2013-02-11d01t07.flac:8a052412a0ba2cdb77ccb1e44a6de335
truett2013-02-11d02t01.flac:3cdc1f562d47987b14d873dbf18230e5
truett2013-02-11d02t02.flac:cc5f6e50622cfedf9cb5d3ed18b03100
truett2013-02-11d02t03.flac:63712eeb0fb03256f0174c0415fdab41
truett2013-02-11d02t04.flac:fdb92d92cc7e17bd3c06ff1c6e4e88cc
truett2013-02-11d02t05.flac:0ad5169b4a73ee88089166a1729fd454
truett2013-02-11d02t06.flac:dcb17fc4b9d048f2d971f0bf8e5961bc
truett2013-02-11d02t07.flac:7dd21949b5b558225ba5a5dec032169b
truett2013-02-11d02t08.flac:7fb5e145fccc6ddb4878319e66920353
truett2013-02-11d02t09.flac:5def9b0bd23d67d4aade255aed4cd003
truett2013-02-11d02t10.flac:a8956e2d89e8d72fb1134965bb2c0fc7
truett2013-02-11d02t11.flac:70151c46512c58b4b69c35e8ce2a7365
truett2013-02-11d02t12.flac:923bf9bd18c33ca10e20dc5f8c846473
truett2013-02-11d02t13.flac:b05b63e16853cc0cdb44f7e18279feb9
truett2013-02-11d02t14.flac:7332acb1b17321d801b13d5d9b957ab7

Shntool

length expanded size cdr WAVE problems fmt ratio filename
7:13.52 76503548 B --- -- ---xx flac 0.4585 truett2013-02-11d01t01.flac
9:10.32 97095308 B --- -- ---xx flac 0.5910 truett2013-02-11d01t02.flac
2:34.07 27182108 B --- -- ---xx flac 0.4891 truett2013-02-11d01t03.flac
7:33.04 79918652 B --- -- ---xx flac 0.5475 truett2013-02-11d01t04.flac
5:53.15 62304524 B --- -- ---xx flac 0.6065 truett2013-02-11d01t05.flac
16:08.58 170891660 B --- -- ---xx flac 0.5919 truett2013-02-11d01t06.flac
10:01.21 106065836 B --- -- ---xx flac 0.5787 truett2013-02-11d01t07.flac
2:07.03 22409900 B --- -- ---xx flac 0.4280 truett2013-02-11d02t01.flac
3:43.64 39487772 B --- -- ---xx flac 0.5624 truett2013-02-11d02t02.flac
7:02.58 74577260 B --- -- ---xx flac 0.5717 truett2013-02-11d02t03.flac
6:12.25 65679644 B --- -- ---xx flac 0.5774 truett2013-02-11d02t04.flac
9:50.08 104094860 B --- -- ---xx flac 0.5528 truett2013-02-11d02t05.flac
11:45.71 124529036 B --- -- ---xx flac 0.5666 truett2013-02-11d02t06.flac
2:49.63 29959820 B --- -- ---xx flac 0.4163 truett2013-02-11d02t07.flac
5:57.08 62993660 B --- -- ---xx flac 0.5516 truett2013-02-11d02t08.flac
16:23.51 173521196 B --- -- ---xx flac 0.5892 truett2013-02-11d02t09.flac
2:10.15 22967324 B --- -- ---xx flac 0.6260 truett2013-02-11d02t10.flac
5:12.06 55050956 B --- -- ---xx flac 0.5900 truett2013-02-11d02t11.flac
2:07.61 22546316 B --- -- ---xx flac 0.5660 truett2013-02-11d02t12.flac
1:23.00 14641244 B --- -- ---xx flac 0.6206 truett2013-02-11d02t13.flac
2:36.19 27563132 B --- -- ---xx flac 0.4389 truett2013-02-11d02t14.flac
137:56.41 1459983756 B 0.5620 (21 files)




Checksumstruett2013-02-11d01t01.flac:ef615a4648dac9313db33f85f7dbc9a3
truett2013-02-11d01t02.flac:76c0ac5950e11c83cca080e9c6abcd9a
truett2013-02-11d01t03.flac:58ba56befa3f6d8965945161cc7b236c
truett2013-02-11d01t04.flac:50fe5c10e9a51624d881cecff0e5f9da
truett2013-02-11d01t05.flac:9145d214ed1e0a726ef4317dc25c8f4d
truett2013-02-11d01t06.flac:e3e12bd897b2b5ba1c9907b2bc71c2e9
truett2013-02-11d01t07.flac:8a052412a0ba2cdb77ccb1e44a6de335
truett2013-02-11d02t01.flac:3cdc1f562d47987b14d873dbf18230e5
truett2013-02-11d02t02.flac:cc5f6e50622cfedf9cb5d3ed18b03100
truett2013-02-11d02t03.flac:63712eeb0fb03256f0174c0415fdab41
truett2013-02-11d02t04.flac:fdb92d92cc7e17bd3c06ff1c6e4e88cc
truett2013-02-11d02t05.flac:0ad5169b4a73ee88089166a1729fd454
truett2013-02-11d02t06.flac:dcb17fc4b9d048f2d971f0bf8e5961bc
truett2013-02-11d02t07.flac:7dd21949b5b558225ba5a5dec032169b
truett2013-02-11d02t08.flac:7fb5e145fccc6ddb4878319e66920353
truett2013-02-11d02t09.flac:5def9b0bd23d67d4aade255aed4cd003
truett2013-02-11d02t10.flac:a8956e2d89e8d72fb1134965bb2c0fc7
truett2013-02-11d02t11.flac:70151c46512c58b4b69c35e8ce2a7365
truett2013-02-11d02t12.flac:923bf9bd18c33ca10e20dc5f8c846473
truett2013-02-11d02t13.flac:b05b63e16853cc0cdb44f7e18279feb9
truett2013-02-11d02t14.flac:7332acb1b17321d801b13d5d9b957ab7
TypeOther
Last seederLast activity 146 days, 21:33:13 ago
Size782.54 MB (820556164 Bytes)
Added2013-02-12 15:23:01
Views0
Hits166
Snatched16 times
Upped byzmanatl
Num files22 files
File List
[Hide list]
filenamesizemd5
truett2013-02-11d02t09.flac97.50 MBN/A
truett2013-02-11d01t06.flac96.47 MBN/A
truett2013-02-11d02t06.flac67.29 MBN/A
truett2013-02-11d01t07.flac58.54 MBN/A
truett2013-02-11d02t05.flac54.87 MBN/A
truett2013-02-11d01t02.flac54.72 MBN/A
truett2013-02-11d01t04.flac41.73 MBN/A
truett2013-02-11d02t03.flac40.66 MBN/A
truett2013-02-11d02t04.flac36.17 MBN/A
truett2013-02-11d01t05.flac36.04 MBN/A
truett2013-02-11d01t01.flac33.45 MBN/A
truett2013-02-11d02t08.flac33.14 MBN/A
truett2013-02-11d02t11.flac30.98 MBN/A
truett2013-02-11d02t02.flac21.18 MBN/A
truett2013-02-11d02t10.flac13.71 MBN/A
truett2013-02-11d01t03.flac12.68 MBN/A
truett2013-02-11d02t12.flac12.17 MBN/A
truett2013-02-11d02t07.flac11.89 MBN/A
truett2013-02-11d02t14.flac11.54 MBN/A
truett2013-02-11d02t01.flac9.15 MBN/A
truett2013-02-11d02t13.flac8.67 MBN/A
truett2013-02-11.textfile.txt4.7 kBN/A
Peers
[See full list]
0 seeders, 1 leecher = 1 peer total

Add a comment

zmanatl 2013-02-12 15:45:24
Well, I taped my Rua Seis friends for 2 sets at Eclipse di Luna, packed up quickly and headed to Darwin's for the 2nd straight week. Cuz Eddie was leaving work and we talked each other into making it happen. We got there as the band was getting ready for their final long set. We had no clue how long it would be until it unfolded!

Lots of Truett's friends and guests in the house. I set up stage lip and the place was packed! my stand got kicked and bumped nto all during the rest of the night. Lots of dancing and chatter, but hey, everyone was there to have fun.

The biggest surprise of the evening was having the Anthony Gomes Band in da house! They play a mean brand of blues. About an hour into the set, Truett gave up the stage for these 3 guys. They played 2 off their latest cd and a cover of Goin' Down. WOW!

Then it was Truett and company getting back down to business! Matt Crawford from Molly Hatchett sat in. After Anthony Crane joined for Sometimes Love Ain't Enough, what ensued was a 29 minute version of Use Me! Mr. Gomes joined in for that frey. Truett was directing trafic for solos and it was a blast!

After, Cuz Eddie and I got to talk to Anthony and his band, as they were very interested in the "taping thing". They know the value of what us tapers can bring to the scene. I was thrilled as I left after 1:45 am! See ya next Monday at Darwin's!

Here is a video of the madness of Use Me. i did the best I could hand held:

http://youtu.be/e5B90fwiuiI

Enjoy Show #31 of 2013!
otterman44 2013-02-12 16:58:17
That was a nice surprise last night. Thanks for heading down there. I'm watching the video now. Nice 30 minutes!
ddyche 2013-02-12 17:23:03
Good job ed

Add a comment


http://etree.org : http://db.etree.org : http://forums.etree.org : http://wiki.etree.org : Legal : RSS Feed

Contents designed & maintained by the etree.org volunteers
1998-2014, etree.org, except where noted. All Rights Reserved.
Read our terms of service and privacy guidelines