bt.etree.org
etree.org Community Bittorrent Tracker
ArtistOther
ShowRua Seis Eclipse Di Luna Atlanta, Georgia 2/11/2013 (Schoeps CCM4V'S FOB)
Report this as
non-Trade-Friendly
Email us
Torrentruaseis2013-02-11.flac16.torrent (click to download)
Downloads asruaseis2013-02-11.flac16
Info hash86db29e6a9f72a9ca1b97c99c5365082ee5a091d
DescriptionRua Seis
Eclipse di Luna
Atlanta, Georgia
2/11/2013

Source: Schoeps CCM4V'S(din)>Lunatec V2>Benchmark AD2K>
Sound Devices 722 (24/48)
FOB/DFC/KFC/ZFC/AARP Stage Lip, 6 1/2' High
DSP: Sound Devices 722>Sound Forge 9.0>CD Wave>flac(16)
Recorded By: Z-Man
Seeded By: Z-Man

Disc I 1st Set

01 ? >
02 ? >
03 ?
04 ? >
05 ? >
06 ?
07 Outro

Disc II 2nd Set

01 ? >
02 ? >
03 ?
04 Happy Happy Birthday Nicole >
05 ? >
06 ?
07 ?
08 ? >
09 ? >
10 ? >
11 ?

Flac Fingerprint

ruaseis2013-02-11d01t01.flac:992ec3548f559fac3d688bc6321b9148
ruaseis2013-02-11d01t02.flac:8f27485dbb46f299dde85fbb6c80c819
ruaseis2013-02-11d01t03.flac:2e24f6a810302d637fb1aec6616fd108
ruaseis2013-02-11d01t04.flac:2b2708ab16051beb303383cfcaaa6a45
ruaseis2013-02-11d01t05.flac:27c8b8bc097abf3bdef30550a018fcce
ruaseis2013-02-11d01t06.flac:b3c778d417bb50c01a422620e566a70c
ruaseis2013-02-11d01t07.flac:77191b9f1734554c7a437f28733121f3
ruaseis2013-02-11d02t01.flac:4b3ffe516c33f72be7a91e30058dda0e
ruaseis2013-02-11d02t02.flac:c60d1c8752d4f688fb5ab5122efcf082
ruaseis2013-02-11d02t03.flac:aa9fe879e2659937ea9094ac4567ec74
ruaseis2013-02-11d02t04.flac:21a6a5f905e6dd89f65d5473ef756cde
ruaseis2013-02-11d02t05.flac:fc69cfda4cd5c2545dd2c933371db2aa
ruaseis2013-02-11d02t06.flac:ea3537ed5562b0c329933e81d6d0f96b
ruaseis2013-02-11d02t07.flac:1f1975590bb9629173716543ae1b5ee3
ruaseis2013-02-11d02t08.flac:33d41c3fbeebff0232243cff4143c33d
ruaseis2013-02-11d02t09.flac:85754fe31c7383351cfea7dc299fd471
ruaseis2013-02-11d02t10.flac:fe1679813105ac255e5c3ef64cbbcbc4
ruaseis2013-02-11d02t11.flac:c87949fa0f19a01f3c5cb00ceff7ca71

Shntool

length expanded size cdr WAVE problems fmt ratio filename
7:26.40 78768524 B --- -- ---xx flac 0.5457 ruaseis2013-02-11d01t01.flac
16:26.23 173984540 B --- -- ---xx flac 0.5343 ruaseis2013-02-11d01t02.flac
3:41.00 38984444 B --- -- ---xx flac 0.4202 ruaseis2013-02-11d01t03.flac
3:19.04 35113052 B --- -- ---xx flac 0.5319 ruaseis2013-02-11d01t04.flac
3:21.12 35484668 B --- -- ---xx flac 0.5283 ruaseis2013-02-11d01t05.flac
5:49.70 61728284 B --- -- ---xx flac 0.4918 ruaseis2013-02-11d01t06.flac
2:23.04 25234652 B --- -- ---xx flac 0.3425 ruaseis2013-02-11d01t07.flac
3:14.09 34242812 B --- -- ---xx flac 0.4706 ruaseis2013-02-11d02t01.flac
3:08.41 33259676 B --- -- ---xx flac 0.5311 ruaseis2013-02-11d02t02.flac
3:10.16 33553676 B --- -- ---xx flac 0.4926 ruaseis2013-02-11d02t03.flac
1:31.64 16202972 B --- -- ---xx flac 0.5022 ruaseis2013-02-11d02t04.flac
5:18.59 56234012 B --- -- ---xx flac 0.5559 ruaseis2013-02-11d02t05.flac
9:49.33 103977260 B --- -- ---xx flac 0.5465 ruaseis2013-02-11d02t06.flac
4:48.23 50857340 B --- -- ---xx flac 0.4543 ruaseis2013-02-11d02t07.flac
3:52.65 41077724 B --- -- ---xx flac 0.5069 ruaseis2013-02-11d02t08.flac
1:55.29 20354252 B --- -- ---xx flac 0.5211 ruaseis2013-02-11d02t09.flac
3:09.51 33459596 B --- -- ---xx flac 0.5491 ruaseis2013-02-11d02t10.flac
8:58.74 95077292 B --- -- ---xx flac 0.5524 ruaseis2013-02-11d02t11.flac
91:25.17 967594776 B 0.5175 (18 files)























Checksumsruaseis2013-02-11d01t01.flac:992ec3548f559fac3d688bc6321b9148
ruaseis2013-02-11d01t02.flac:8f27485dbb46f299dde85fbb6c80c819
ruaseis2013-02-11d01t03.flac:2e24f6a810302d637fb1aec6616fd108
ruaseis2013-02-11d01t04.flac:2b2708ab16051beb303383cfcaaa6a45
ruaseis2013-02-11d01t05.flac:27c8b8bc097abf3bdef30550a018fcce
ruaseis2013-02-11d01t06.flac:b3c778d417bb50c01a422620e566a70c
ruaseis2013-02-11d01t07.flac:77191b9f1734554c7a437f28733121f3
ruaseis2013-02-11d02t01.flac:4b3ffe516c33f72be7a91e30058dda0e
ruaseis2013-02-11d02t02.flac:c60d1c8752d4f688fb5ab5122efcf082
ruaseis2013-02-11d02t03.flac:aa9fe879e2659937ea9094ac4567ec74
ruaseis2013-02-11d02t04.flac:21a6a5f905e6dd89f65d5473ef756cde
ruaseis2013-02-11d02t05.flac:fc69cfda4cd5c2545dd2c933371db2aa
ruaseis2013-02-11d02t06.flac:ea3537ed5562b0c329933e81d6d0f96b
ruaseis2013-02-11d02t07.flac:1f1975590bb9629173716543ae1b5ee3
ruaseis2013-02-11d02t08.flac:33d41c3fbeebff0232243cff4143c33d
ruaseis2013-02-11d02t09.flac:85754fe31c7383351cfea7dc299fd471
ruaseis2013-02-11d02t10.flac:fe1679813105ac255e5c3ef64cbbcbc4
ruaseis2013-02-11d02t11.flac:c87949fa0f19a01f3c5cb00ceff7ca71
TypeOther
Last seederLast activity 6:36 ago
Size477.52 MB (500710822 Bytes)
Added2013-02-12 20:31:50
Views0
Hits156
Snatched13 times
Upped byzmanatl
Num files
[See full list]
19 files
Peers
[See full list]
0 seeders, 1 leecher = 1 peer total

No comments yet

Add a comment


http://etree.org : http://db.etree.org : http://forums.etree.org : http://wiki.etree.org : Legal : RSS Feed

Contents designed & maintained by the etree.org volunteers
1998-2014, etree.org, except where noted. All Rights Reserved.
Read our terms of service and privacy guidelines