bt.etree.org
etree.org Community Bittorrent Tracker
ArtistPhish
Showph1998-07-01u89
Report this as
non-Trade-Friendly
Email us
Torrentph1998-07-01u89.torrent (click to download)
Downloads asph1998-07-01u89
Info hash28ca65d8bc8853489c759994d6ab314e9a98cd94
db linkhttp://db.etree.org/shn/123817 | Show | Source
DescriptionPhish - July 1, 1998
The Grey Hall - Copenhagen, Denmark

Recording Info:
Neumann U89 -> Sonosax SX-M2 -> Sony SBM-1 -> Dat (Tascam DA-P1/48k)

Transfer Info:
Dat (Tascam DA-20) -> Tascam SS-R05 -> Samplitude Professional v11.2.1 -> FLAC
(2 Discs Audio / 1 DVD FLAC)

All Transfers and Mastering By Charlie Miller
charliemiller87@earthlink.net
February 12, 2013

Notes:
-- Sweet Adeline is barely audible

Set 1:
d1t01 - NICU ->
d1t02 - Sample In A Jar
d1t03 - My Mind's Got A Mind Of Its Own
d1t04 - The Moma Dance
d1t05 - Down With Disease ->
d1t06 - Dog Faced Boy ->
d1t07 - Piper
d1t08 - Waste ->
d1t09 - Chalk Dust Torture

Set 2:
d2t01 - Tweezer ->
d2t02 - Also Sprach Zarathustra ->
d2t03 - Loving Cup ->
d2t04 - My Soul
d2t05 - Sweet Adeline

Encore:
d2t06 - Harry Hood


SHNTOOL OUTPUT:
length expanded size cdr WAVE problems fmt ratio filename
6:00.15 63539324 B --- -- ---xx flac 0.5354 ph1998-07-01d1t01.flac
5:06.03 53985500 B --- -- ---xx flac 0.5726 ph1998-07-01d1t02.flac
2:56.30 31117004 B --- -- ---xx flac 0.5353 ph1998-07-01d1t03.flac
13:37.18 144161180 B --- -- ---xx flac 0.5413 ph1998-07-01d1t04.flac
20:36.18 218072780 B --- -- ---xx flac 0.5305 ph1998-07-01d1t05.flac
2:24.49 25516892 B --- -- ---xx flac 0.5095 ph1998-07-01d1t06.flac
5:40.32 60051308 B --- -- ---xx flac 0.5618 ph1998-07-01d1t07.flac
5:33.62 58887068 B --- -- ---xx flac 0.5312 ph1998-07-01d1t08.flac
7:39.18 81009980 B --- -- ---xx flac 0.5821 ph1998-07-01d1t09.flac
23:16.38 246343820 B --- -- ---xx flac 0.5343 ph1998-07-01d2t01.flac
15:17.66 161914076 B --- -- ---xx flac 0.5334 ph1998-07-01d2t02.flac
5:43.15 60540524 B --- -- ---xx flac 0.5799 ph1998-07-01d2t03.flac
7:30.33 79457660 B --- -- ---xx flac 0.5656 ph1998-07-01d2t04.flac
3:34.33 37827260 B --- -- ---xx flac 0.4573 ph1998-07-01d2t05.flac
13:52.56 146896556 B --- -- ---xx flac 0.5331 ph1998-07-01d2t06.flac
138:49.36 1469320932 B 0.5405 (15 files)
Checksumsph1998-07-01d1t01.flac:f65bca709538c3e3a57a5d7bfd9503b0<br />
ph1998-07-01d1t02.flac:099844e82f9f009fad4369e18f4a2464<br />
ph1998-07-01d1t03.flac:1c8839027f971453682818105db60e03<br />
ph1998-07-01d1t04.flac:2d2355703a8de0f86a868176547ca71c<br />
ph1998-07-01d1t05.flac:9dd4a4f931a7521b17e1e89acefbd909<br />
ph1998-07-01d1t06.flac:68e82708d3a3b3152df19c3e75b5c9e2<br />
ph1998-07-01d1t07.flac:0199e8713a7bb5cd0634c6154abbb33a<br />
ph1998-07-01d1t08.flac:76d4a179cd76eb02e246785c83757489<br />
ph1998-07-01d1t09.flac:7308d733fa68c4a8700ff3046c97a21e<br />
ph1998-07-01d2t01.flac:4594d78c3817a284d3457b171b6745a8<br />
ph1998-07-01d2t02.flac:0b340867fb7d6109e156933044726c3d<br />
ph1998-07-01d2t03.flac:6ec392b8d1468db3f577ef1e79a71d2b<br />
ph1998-07-01d2t04.flac:729eef7cf6bd1bc87ce4ddd329d7d6b4<br />
ph1998-07-01d2t05.flac:1088fe3f7cbb37a9a2fbebb1e1fe1c1d<br />
ph1998-07-01d2t06.flac:e24f9e73344ceefa9608eb60668b92ce<br />
TypePhish
Last seederLast activity 11:05 ago
Size757.34 MB (794124150 Bytes)
Added2013-02-12 22:24:43
Views6
Hits701
Snatched380 times
Upped bycharlie miller
Num files
[See full list]
18 files
Seeders
[Hide list]
1 Seeder(s)
ip:portclient
version
ul
bytes
dl
bytes
ratiocompleteul
rate
dl
rate
time
connected
time
left
idle
98.149.251.xxx:48982 μtorrent 2.2.0.0 0 B 0 B N/A 100.00%
N/A N/A 41:08 N/A 11:05
0 of 1 firewalled (0%) 100.00%
N/AN/A
Leechers
[Hide list]
0 Leecher(s)

Add a comment

twatts 2013-02-12 22:42:34
Thank you!

Terry
scootertrash 2013-02-12 22:45:51
Wonder who the taper was...i was there w/ 4 decks patched out of my rig.

Thanks Charlie
jasonsobel 2013-02-13 05:15:03
I just added this to the etree database:
http://db.etree.org/shn/123817

thanks!
chillwig 2013-02-13 08:06:21
Mark Lutzker and Rich Schaeffer ran Dan Estrin's U89s on this tour.
sprobeck 2013-02-13 13:30:43
Thank you!
funkbeard 2013-02-13 15:22:24
Charlie Miller doing Phish!

Sick, man!


You've got to get acquainted with 11/30/95. First set is high-powered versions of standard fare. Second set.... well, I've been deeply into Phish since 1996 because of that tape. And there's no other show that compares, in my opinion. Different kinds of excellence, but only one 11/30/95.

Thanks again, Charlie. I can't wait to listen to this.
funkbeard 2013-02-13 15:22:38
Charlie Miller doing Phish!

Sick, man!


You've got to get acquainted with 11/30/95. First set is high-powered versions of standard fare. Second set.... well, I've been deeply into Phish since 1996 because of that tape. And there's no other show that compares, in my opinion. Different kinds of excellence, but only one 11/30/95.

Thanks again, Charlie. I can't wait to listen to this.
Driftin_n_Dreamin 2013-02-13 16:11:00
Is there an echo in here ?
LAStubbe 2013-02-13 18:06:08
Troll. Get out of here dude. You always do that shit.
parrott56 2013-02-13 21:58:14
I love this 2001. One of my all-time favorite versions.
colinw 2013-02-14 14:03:20
sounds great. I had a wonderful time on this Euro run and this brings back great memories. thank you.
Driftin_n_Dreamin 2013-02-15 11:05:38
I got your troll swinging stubby ...
WALTMON 2013-02-16 19:17:44
This show is a big fave...nice to see the U89 source.
sumodie 2013-02-18 11:36:28
thank you!
kindmeow 2013-09-03 14:57:04
many thanks for the kind music


(~);}

Add a comment


http://etree.org : http://db.etree.org : http://forums.etree.org : http://wiki.etree.org : Legal : RSS Feed

Contents designed & maintained by the etree.org volunteers
1998-2014, etree.org, except where noted. All Rights Reserved.
Read our terms of service and privacy guidelines