bt.etree.org
etree.org Community Bittorrent Tracker
ArtistGrateful Dead
Showgd82-12-27.95954.set2-sbd.miller.t-flac16
Report this as
non-Trade-Friendly
Email us
Torrentgd82-12-27.95954.sbd-set2.miller.sbeok.t-flac16.torrent (click to download)
Downloads asgd82-12-27.95954.sbd-set2.miller.sbeok.t-flac16
Info hash91e4e2cb488b9d36e46dd07f3003652c7f926c8e
db linkhttp://db.etree.org/shn/95954 | Show | Source
DescriptionThis is a tagged version of shind: 95954

Grateful Dead
December 27, 1982
Oakland Auditorium
Oakland, CA

**Set 2 Only**

Recording Info:
SBD -> PCM

Transfer Info:
PCM -> Peak -> Samplitude Professional v10.1 -> FLAC
(1 Disc Audio / 1 Disc FLAC)

All Transfers and Mastering By Charlie Miller
charliemiller87@earthlink.net
November 21, 2008

Patch Info:
SBD -> Cassette Master (shnid=81515) supplies:
Scarlet Begonias (0:00 - 0:13) (7:18 - 7:22)
Fire On The Mountain (3:11 - 8:21)

Notes:
-- First few notes of U.S. Blues missing
-- Thanks to Michael Kirschner for lending me his PCM tapes
____________________________________________________________________________

--Set 2--
201-d2t01 - Scarlet Begonias ->
202-d2t02 - Fire on the Mountain ->
203-d2t03 - Playing in the Band ->
204-d2t04 - Drums ->
205-d2t05 - Space ->
206-d2t06 - The Wheel ->
207-d2t07 - The Other One ->
208-d2t08 - Black Peter ->
209-d2t09 - Sugar Magnolia

--Encore--
210-d2t10 -U.S. Blues
____________________________________________________________________________

Tagging notes:
Show information is embedded within the header of each flac file.
It will display on any player capable of directly playing flac files.
If converted to wav during processing, all tags will be stripped,
however audio data will remain unaffected.
If you must transcode to a lossy format, do so directly Flac > Lossy.
Use ffp to validate audio integrity.
Md5 values will change if tagging is altered.
B. Proctor 4-15-11
____________________________________________________________________________

SHNTOOL OUTPUT:
length expanded size cdr WAVE problems filename
10:43.19 113469932 --- -- ----- gd82-12-27d2t01.wav
10:11.23 107834540 --- -- ----- gd82-12-27d2t02.wav
10:51.54 114963452 --- -- ----- gd82-12-27d2t03.wav
6:47.01 71797196 --- -- ----- gd82-12-27d2t04.wav
4:14.09 44826812 --- -- ----- gd82-12-27d2t05.wav
5:53.60 62410364 --- -- ----- gd82-12-27d2t06.wav
7:17.49 77202092 --- -- ----- gd82-12-27d2t07.wav
8:54.05 94209404 --- -- ----- gd82-12-27d2t08.wav
8:29.32 89862908 --- -- ----- gd82-12-27d2t09.wav
5:02.08 53291660 --- -- ----- gd82-12-27d2t10.wav
78:24.35 829868360 B (totals for 10 files)
Checksumsgd82-12-27d2t01.flac:847dfada098b590af7bec44381d0b28f<br />
gd82-12-27d2t02.flac:b5dea0c845e199a78b4f249a64fab5b1<br />
gd82-12-27d2t03.flac:3dd9621550a1920ef2e8bebce5b6e8ff<br />
gd82-12-27d2t04.flac:4ed6203c434b416d6492a088f4838c67<br />
gd82-12-27d2t05.flac:8e5380ef8cb3c7fdf86de3ced74bdb3a<br />
gd82-12-27d2t06.flac:d3a7be82eada06ed14fd5b04dd400222<br />
gd82-12-27d2t07.flac:95352f32e10cb9112b706d9bdcded5db<br />
gd82-12-27d2t08.flac:ced3593b2b0267e5d2bbd2cbbff333e0<br />
gd82-12-27d2t09.flac:779b8eb8979e76c76f7976df9891c524<br />
gd82-12-27d2t10.flac:26bd6332a11a19921aebc4038450853a<br />
TypeGrateful Dead
Last seederLast activity 22:19 ago
Size499.74 MB (524016839 Bytes)
Added2013-02-13 07:30:57
Views0
Hits463
Snatched208 times
Upped bygermain
Num files13 files
File List
[Hide list]
filenamesizemd5
gd82-12-27.095954.txt2.4 kBN/A
gd82-12-27.95954.tagged.md5673 BN/A
gd82-12-27.ffp550 BN/A
gd82-12-27d2t01.flac69.58 MBN/A
gd82-12-27d2t02.flac66.81 MBN/A
gd82-12-27d2t03.flac70.09 MBN/A
gd82-12-27d2t04.flac39.47 MBN/A
gd82-12-27d2t05.flac21.63 MBN/A
gd82-12-27d2t06.flac38.54 MBN/A
gd82-12-27d2t07.flac46.81 MBN/A
gd82-12-27d2t08.flac54.58 MBN/A
gd82-12-27d2t09.flac58.20 MBN/A
gd82-12-27d2t10.flac34.04 MBN/A
Peers
[See full list]
1 seeder, 0 leechers = 1 peer total

Add a comment

germain 2013-02-13 07:31:21
Today's seeds will be broken into two parts. First the soundboards, then an excellent audience and a sickbits matrix.

What a number of downloaders apparently missed yesterday is that Charlie Miller's 2nd set board was digitally recorded off of the board via PCM. The same is true today. The PCM recording is of better quality than the cassette recordings.
srsantay 2013-02-13 16:38:19
thanks for the heads up

Add a comment


http://etree.org : http://db.etree.org : http://forums.etree.org : http://wiki.etree.org : Legal : RSS Feed

Contents designed & maintained by the etree.org volunteers
1998-2014, etree.org, except where noted. All Rights Reserved.
Read our terms of service and privacy guidelines