bt.etree.org
etree.org Community Bittorrent Tracker
ArtistPhish
Showph1997-11-23u87
Report this as
non-Trade-Friendly
Email us
Torrentph1997-11-23u87.torrent (click to download)
Downloads asph1997-11-23u87
Info hash00e963244ba055386a782af747557dc386478280
db linkhttp://db.etree.org/shn/123829 | Show | Source
DescriptionPhish - November 23, 1997
Lawrence Joel Coliseum - Winston-Salem, NC

Recording Info:
Neumann U87 -> Sonosax SX-M2 -> Dat (Tascam DA-P1/48k)

Transfer Info:
Dat (Tascam DA-20) -> Tascam SS-R05 -> Samplitude Professional v11.2.1 -> FLAC
(3 Discs Audio / 1 DVD FLAC)

All Transfers and Mastering By Charlie Miller
charliemiller87@earthlink.net
February 14, 2013

Notes:
-- All disc changes are seamless

Set 1:
d1t01 - My Soul
d1t02 - Theme From The Bottom ->
d1t03 - Black-Eyed Katy
d1t04 - Sparkle
d1t05 - Twist ->
d1t06 - Stash ->
d1t07 - NICU
d2t01 - Fluffhead ->
d2t02 - Character Zero

Set 2:
d2t03 - Bathtub Gin ->
d2t04 - Down With Disease ->
d2t05 - Low Rider ->
d2t06 - Down With Disease
d3t01 - Bold As Love

Encore:
d3t02 - Julius


SHNTOOL OUTPUT:
length expanded size cdr WAVE problems fmt ratio filename
7:17.72 77256188 B --- -- ---xx flac 0.5824 ph1997-11-23d1t01.flac
10:13.56 108264956 B --- -- ---xx flac 0.5582 ph1997-11-23d1t02.flac
10:54.07 115382108 B --- -- ---xx flac 0.5645 ph1997-11-23d1t03.flac
4:01.09 42533612 B --- -- ---xx flac 0.5834 ph1997-11-23d1t04.flac
10:23.20 109944284 B --- -- ---xx flac 0.5523 ph1997-11-23d1t05.flac
17:01.42 180203228 B --- -- ---xx flac 0.5565 ph1997-11-23d1t06.flac
5:50.32 61815308 B --- -- ---xx flac 0.5804 ph1997-11-23d1t07.flac
15:38.26 165524396 B --- -- ---xx flac 0.5736 ph1997-11-23d2t01.flac
7:13.10 76404764 B --- -- ---xx flac 0.6039 ph1997-11-23d2t02.flac
31:35.74 334452092 B --- -- ---xx flac 0.5676 ph1997-11-23d2t03.flac
12:00.71 127175036 B --- -- ---xx flac 0.5857 ph1997-11-23d2t04.flac
7:21.29 77860652 B --- -- ---xx flac 0.5480 ph1997-11-23d2t05.flac
3:42.11 39186716 B --- -- ---xx flac 0.5968 ph1997-11-23d2t06.flac
8:36.74 91196492 B --- -- ---xx flac 0.5794 ph1997-11-23d3t01.flac
10:38.05 112555004 B --- -- ---xx flac 0.5920 ph1997-11-23d3t02.flac
162:29.13 1719754836 B 0.5717 (15 files)
Checksumsph1997-11-23d1t01.flac:314142d8b08797b9826b7f1bfa968b75<br />
ph1997-11-23d1t02.flac:e503394661537aa7f7406ba747adf46d<br />
ph1997-11-23d1t03.flac:3a1e52d54034b2695505f5299601efdd<br />
ph1997-11-23d1t04.flac:b795961d988095a5e238b8a1cf385a45<br />
ph1997-11-23d1t05.flac:04b265ad17c6cc81a730b806928ec579<br />
ph1997-11-23d1t06.flac:c8b5e17844028f0403cdd0bad2b29fda<br />
ph1997-11-23d1t07.flac:8898a648b30407778a1a9ebea06db1d0<br />
ph1997-11-23d2t01.flac:5420c5bb87c772fef5d73fcb3e142ccf<br />
ph1997-11-23d2t02.flac:334aeb812fb0cfe9575917c9abeca2b7<br />
ph1997-11-23d2t03.flac:caf3e37d70053b4b30ecb1c59f2d5908<br />
ph1997-11-23d2t04.flac:c5752dbc470bce23241acb328c324780<br />
ph1997-11-23d2t05.flac:63b13e7235a9f02bd22c0b80c2ec8872<br />
ph1997-11-23d2t06.flac:e5ab2b590131f2687c27996a59f5288e<br />
ph1997-11-23d3t01.flac:dc5f2af570301df3554b17dbb147495d<br />
ph1997-11-23d3t02.flac:56baa2cdf926c381c691d0c11dc0cfd5<br />
TypePhish
Last seederLast activity 12:54 ago
Size937.63 MB (983179445 Bytes)
Added2013-02-15 00:02:03
Views5
Hits633
Snatched341 times
Upped bycharlie miller
Num files18 files
File List
[Hide list]
filenamesizemd5
ph1997-11-23.ffp855 BN/A
ph1997-11-23.md5870 BN/A
ph1997-11-23.txt2.2 kBN/A
ph1997-11-23d1t01.flac42.91 MBN/A
ph1997-11-23d1t02.flac57.63 MBN/A
ph1997-11-23d1t03.flac62.11 MBN/A
ph1997-11-23d1t04.flac23.66 MBN/A
ph1997-11-23d1t05.flac57.91 MBN/A
ph1997-11-23d1t06.flac95.63 MBN/A
ph1997-11-23d1t07.flac34.21 MBN/A
ph1997-11-23d2t01.flac90.55 MBN/A
ph1997-11-23d2t02.flac44.00 MBN/A
ph1997-11-23d2t03.flac181.03 MBN/A
ph1997-11-23d2t04.flac71.04 MBN/A
ph1997-11-23d2t05.flac40.69 MBN/A
ph1997-11-23d2t06.flac22.30 MBN/A
ph1997-11-23d3t01.flac50.39 MBN/A
ph1997-11-23d3t02.flac63.55 MBN/A
Peers
[See full list]
3 seeders, 0 leechers = 3 peers total

Add a comment

sloth1976 2013-02-15 00:20:28
Thank you Charlie great show =D
jasonsobel 2013-02-15 05:18:21
I just added this to the etree database:
http://db.etree.org/shn/123829

thanks!
digs5446 2013-02-15 06:53:56
Wow - a Miller transfer of an epic show from perhaps the most legendary week of Phish ever!

THANK YOU!
colinw 2013-02-15 08:19:27
This sounds great! Thank you once again Charlie. I always loved this show.
gainesvillegreen 2013-02-15 08:43:40
Black-Eyed Katy.

Thanks.
metawhy 2013-02-15 09:33:49
thank you for the large diaphragm love!!
chillwig 2013-02-15 10:07:19
Taper for this one is Gary Fox.
charlie miller 2013-02-15 12:22:20
I did a lot of work to this one and it came out a lot better than the source dat,
LAStubbe 2013-02-15 13:09:21
Lotta work = we win. The beauty of technology. Thanks cm. I thought Gary Fox too when I saw this.
chocobot 2013-02-15 14:17:07
yes thank you charlie
dgeisler 2013-02-15 15:46:00
CM's awesome!
funkbeard 2013-02-16 01:44:46
Now this is a transfer!

Where the Hampton SBD's sounded wonderful, crisp and balanced, the official SBD of this show sounded empty, hollow, something missing to my ears.

Then you have an audience recording like this. Everything about this recording sounds just exactly right to my ears. When discussing what a good audience recording is, put this at the top of the list. A great specimen of a recording done right, in my opinion.

Thanks, CM!
braddsmi 2013-02-16 17:56:43
Thank you, Mr. Miller. I adore this 'Fluffhead.'
WALTMON 2013-02-16 19:14:28
Thanks Charlie....nice job. I esp like the Black Eyed Katy on this one...
nab 2013-02-17 00:08:02
Thanks!
geewiz010 2013-02-27 11:07:34
Thanks for this!
kindmeow 2014-06-15 20:51:06
Many thanks for sharing

Add a comment


http://etree.org : http://db.etree.org : http://forums.etree.org : http://wiki.etree.org : Legal : RSS Feed

Contents designed & maintained by the etree.org volunteers
1998-2014, etree.org, except where noted. All Rights Reserved.
Read our terms of service and privacy guidelines