bt.etree.org
etree.org Community Bittorrent Tracker
ArtistGrateful Dead
Showgd82-12-30.92955.set2-sbd.miller.t-flac16
Report this as
non-Trade-Friendly
Email us
Torrentgd82-12-30.92955.sbd-set2.miller.sbeok.t-flac16.torrent (click to download)
Downloads asgd82-12-30.92955.sbd-set2.miller.sbeok.t-flac16
Info hash4e8c2bb9490b3ff270fd735782a7fdc3ec45a80d
db linkhttp://db.etree.org/shn/92955 | Show | Source
DescriptionThis is a tagged version of shnid: 95955

Grateful Dead
December 30, 1982
Oakland Auditorium
Oakland, CA

**Set 2 Only**

Recording Info:
SBD -> PCM

Transfer Info:
PCM -> Peak -> Samplitude Professional v10.1 -> FLAC
(2 Discs Audio / 1 Disc FLAC)

All Transfers and Mastering By Charlie Miller
charliemiller87@earthlink.net
November 21, 2008

Notes:
-- Disc change is seamless
-- Thanks to Michael Kirschner for lending me his PCM tapes
-- Encore with Etta James and Tower of Power
_____________________________________________________________________________

--Set 2--
201-d2t01 - Tuning
202-d2t02 - Touch of Grey ->
203-d2t03 - Throwing Stones ->
204-d2t04 - Franklin's Tower
205-d2t05 - Lost Sailor ->
206-d2t06 - Saint of Circumstance ->
207-d2t07 - He's Gone ->
208-d2t08 - Drums ->
209-d3t01 - Space ->
210-d3t02 - Truckin' ->
211-d3t03 - Stella Blue ->
212-d3t04 - Goin' Down the Road Feeling Bad ->
213-d3t05 - Johnny B. Goode

--Encore--
214-d3t06 - Hard to Handle
215-d3t07 - Tell Mama
_____________________________________________________________________________

Tagging notes:
Show information is embedded within the header of each flac file.
It will display on any player capable of directly playing flac files.
If converted to wav during processing, all tags will be stripped,
however audio data will remain unaffected.
If you must transcode to a lossy format, do so directly Flac > Lossy.
Use ffp to validate audio integrity.
Md5 values will change if tagging is altered.
B. Proctor 4-16-11
_____________________________________________________________________________

SHNTOOL OUTPUT:
length expanded size cdr WAVE problems filename
2:15.52 23936348 --- -- ----- gd82-12-30d2t01.wav
6:41.44 70839932 --- -- ----- gd82-12-30d2t02.wav
7:19.29 77507852 --- -- ----- gd82-12-30d2t03.wav
14:36.56 154658156 --- -- ----- gd82-12-30d2t04.wav
6:40.58 70696460 --- -- ----- gd82-12-30d2t05.wav
7:03.05 74629004 --- -- ----- gd82-12-30d2t06.wav
10:02.67 106350428 --- -- ----- gd82-12-30d2t07.wav
8:29.58 89924060 --- -- ----- gd82-12-30d2t08.wav
8:14.35 87223964 --- -- ----- gd82-12-30d3t01.wav
8:16.61 87637916 --- -- ----- gd82-12-30d3t02.wav
8:27.46 89543036 --- -- ----- gd82-12-30d3t03.wav
7:07.07 75339308 --- -- ----- gd82-12-30d3t04.wav
4:48.11 50829116 --- -- ----- gd82-12-30d3t05.wav
3:28.71 36858236 --- -- ----- gd82-12-30d3t06.wav
3:39.23 38685740 --- -- ----- gd82-12-30d3t07.wav
107:12.23 1134659556 B (totals for 15 files)
Checksumsgd82-12-30d2t01.flac:ad0dc3fd9a049d999a405c8704332a53<br />
gd82-12-30d2t02.flac:7ff7dc360f0a2026db7e2e500a50263e<br />
gd82-12-30d2t03.flac:13432d0f179e591b30a5c21076c60a3b<br />
gd82-12-30d2t04.flac:de5c774a522b2196b967da93576a4ff5<br />
gd82-12-30d2t05.flac:1df70f2fded664328328b039055335eb<br />
gd82-12-30d2t06.flac:dae326fbf6bba13c605aa7e847a20dce<br />
gd82-12-30d2t07.flac:7ca0283ecb7b9ab3ee8bcd5c226fd4c1<br />
gd82-12-30d2t08.flac:262e701fb3c08dd5db04f9781a66f94e<br />
gd82-12-30d3t01.flac:e2769f2e4e98e1843df6753604c4acd1<br />
gd82-12-30d3t02.flac:d257424130bb0c3fddf3aa053dfda55b<br />
gd82-12-30d3t03.flac:eededb3f64299d3e6ff846246aaa9c94<br />
gd82-12-30d3t04.flac:ea24ac1ec230681a4fcb838b0be144f9<br />
gd82-12-30d3t05.flac:04fc101cfefe89fc8ffe24d17d4fd1fb<br />
gd82-12-30d3t06.flac:30751af5812b1982958839b3a179af5a<br />
gd82-12-30d3t07.flac:9dd4c9335aa2da00f0bf93e81f6016e1<br />
TypeGrateful Dead
Last seederLast activity 21:11 ago
Size628.79 MB (659329125 Bytes)
Added2013-02-15 07:27:05
Views0
Hits438
Snatched177 times
Upped bygermain
Num files
[See full list]
18 files
Peers
[See full list]
1 seeder, 0 leechers = 1 peer total

Add a comment

germain 2013-02-15 07:36:44
Keep in mind, this is a PCM source.

Add a comment


http://etree.org : http://db.etree.org : http://forums.etree.org : http://wiki.etree.org : Legal : RSS Feed

Contents designed & maintained by the etree.org volunteers
1998-2014, etree.org, except where noted. All Rights Reserved.
Read our terms of service and privacy guidelines