bt.etree.org
etree.org Community Bittorrent Tracker
ArtistOther
ShowWheeler Brothers Vinyl Atlanta, Georgia 2/14/2013 (Schoeps CCM4V'S FOB)
Report this as
non-Trade-Friendly
Email us
Torrentwheeler2013-02-14.flac16.torrent (click to download)
Downloads aswheeler2013-02-14.flac16
Info hash07a996e787db68c10d0ab20eed4c4922b494b0eb
DescriptionWheeler Brothers
Vinyl
Atlanta, Georgia
2/14/2013

Source: Schoeps CCM4V'S(din)>Lunatec V2>Benchmark AD2K>
Sound Devices 722 (24/48)
FOB/DFC/KFC/ZFC/AARP 18' From Stage, 7' High
DSP: Sound Devices 722>Sound Forge 9.0>CD Wave>flac(16)
Recorded By: Z-Man
Seeded By: Z-Man

Disc I

01 Greeting
02 Mississippi Liner
03 ?
04 Focus
05 Heather
06 Straight And Steady
07 Portraits >
08 Long, Hard Road
09 Gold Boots Glitter
10 Sleep When I'm Dead
11 ?
12 Cigarette Smoke
13 My Time
14 You Got A Lot Of Love
15 I've Been

Flac Fingerprint

wheeler2013-02-14d01t01.flac:dcf4d8502524253c5e22592ad369843d
wheeler2013-02-14d01t02.flac:bde84091af5090ea64d24b5339a84ac7
wheeler2013-02-14d01t03.flac:0d5ba63811fcaa1913879e360ab153b0
wheeler2013-02-14d01t04.flac:c83ee0272812807457a1e4306d412a60
wheeler2013-02-14d01t05.flac:50a4cf59fea3a763fb864b90569dd948
wheeler2013-02-14d01t06.flac:bfcffc890ec05ebf7963dee5201c8a44
wheeler2013-02-14d01t07.flac:1d02b60623d8f937f52849dccfcf6052
wheeler2013-02-14d01t08.flac:2483475d4017f7a9b7a1d4be62f12c4d
wheeler2013-02-14d01t09.flac:379f35301a1df342ea6779da58eecd94
wheeler2013-02-14d01t10.flac:4c933d755cf56bc709dc9e48f10edc47
wheeler2013-02-14d01t11.flac:f06889c4b1bd85374d6ba8e16e24862c
wheeler2013-02-14d01t12.flac:5bc39a66aa4a13142d20aa128197fd2c
wheeler2013-02-14d01t13.flac:078ba4ad95107a8dd0d42c12fb5409e6
wheeler2013-02-14d01t14.flac:9b7d7365c829461b2623b87c748cfdb9
wheeler2013-02-14d01t15.flac:0fd97b9fe5c3951f3590ac9684200a6c

Shntool

length expanded size cdr WAVE problems fmt ratio filename
0:21.55 3833804 B --- -- ---xx flac 0.3314 wheeler2013-02-14d01t01.flac
4:14.48 44918540 B --- -- ---xx flac 0.4877 wheeler2013-02-14d01t02.flac
3:24.25 36044444 B --- -- ---xx flac 0.5059 wheeler2013-02-14d01t03.flac
4:52.43 51609980 B --- -- ---xx flac 0.5061 wheeler2013-02-14d01t04.flac
4:16.08 45177260 B --- -- ---xx flac 0.5323 wheeler2013-02-14d01t05.flac
4:30.41 47724476 B --- -- ---xx flac 0.4917 wheeler2013-02-14d01t06.flac
5:36.51 59390396 B --- -- ---xx flac 0.4845 wheeler2013-02-14d01t07.flac
2:52.68 30500780 B --- -- ---xx flac 0.5035 wheeler2013-02-14d01t08.flac
5:07.12 54183068 B --- -- ---xx flac 0.4215 wheeler2013-02-14d01t09.flac
3:32.21 37446236 B --- -- ---xx flac 0.5286 wheeler2013-02-14d01t10.flac
4:13.07 44645708 B --- -- ---xx flac 0.4367 wheeler2013-02-14d01t11.flac
3:26.48 36451340 B --- -- ---xx flac 0.4971 wheeler2013-02-14d01t12.flac
5:26.28 57572300 B --- -- ---xx flac 0.4440 wheeler2013-02-14d01t13.flac
4:24.45 46675484 B --- -- ---xx flac 0.4474 wheeler2013-02-14d01t14.flac
4:46.30 50521004 B --- -- ---xx flac 0.4711 wheeler2013-02-14d01t15.flac
61:06.05 646694820 B 0.4789 (15 files)

























Checksumswheeler2013-02-14d01t01.flac:dcf4d8502524253c5e22592ad369843d
wheeler2013-02-14d01t02.flac:bde84091af5090ea64d24b5339a84ac7
wheeler2013-02-14d01t03.flac:0d5ba63811fcaa1913879e360ab153b0
wheeler2013-02-14d01t04.flac:c83ee0272812807457a1e4306d412a60
wheeler2013-02-14d01t05.flac:50a4cf59fea3a763fb864b90569dd948
wheeler2013-02-14d01t06.flac:bfcffc890ec05ebf7963dee5201c8a44
wheeler2013-02-14d01t07.flac:1d02b60623d8f937f52849dccfcf6052
wheeler2013-02-14d01t08.flac:2483475d4017f7a9b7a1d4be62f12c4d
wheeler2013-02-14d01t09.flac:379f35301a1df342ea6779da58eecd94
wheeler2013-02-14d01t10.flac:4c933d755cf56bc709dc9e48f10edc47
wheeler2013-02-14d01t11.flac:f06889c4b1bd85374d6ba8e16e24862c
wheeler2013-02-14d01t12.flac:5bc39a66aa4a13142d20aa128197fd2c
wheeler2013-02-14d01t13.flac:078ba4ad95107a8dd0d42c12fb5409e6
wheeler2013-02-14d01t14.flac:9b7d7365c829461b2623b87c748cfdb9
wheeler2013-02-14d01t15.flac:0fd97b9fe5c3951f3590ac9684200a6c
TypeOther
Last seederLast activity 3:02:20 ago
Size295.34 MB (309681635 Bytes)
Added2013-02-15 10:52:06
Views0
Hits203
Snatched16 times
Upped byzmanatl
Num files
[See full list]
16 files
Seeders
[Hide list]
0 Seeder(s)
Leechers
[Hide list]
0 Leecher(s)

Add a comment

sizehump 2013-04-01 00:59:49
Thanks Z-Man, listened to this before I saw these guys at Martyrs' on Saturday.

Add a comment


http://etree.org : http://db.etree.org : http://forums.etree.org : http://wiki.etree.org : Legal : RSS Feed

Contents designed & maintained by the etree.org volunteers
1998-2014, etree.org, except where noted. All Rights Reserved.
Read our terms of service and privacy guidelines