bt.etree.org
etree.org Community Bittorrent Tracker
ArtistOther
ShowSister Sparrow And The Dirty Birds Vinyl Atlanta, Georgia 2/14/2013 (Schoeps CCM4V'S FOB)
Report this as
non-Trade-Friendly
Email us
Torrentssdb2013-02-14.flac16.torrent (click to download)
Downloads asssdb2013-02-14.flac16
Info hash5e35a779c5b19a4d5719511c5fa2fb6db51afcdb
DescriptionSister Sparrow And The Dirty Birds
Vinyl
Atlanta, Georgia
2/14/2013

Source: Schoeps CCM4V'S(din)>Lunatec V2>Benchmark AD2K>
Sound Devices 722 (24/48)
FOB/DFC/KFC/ZFC/AARP 18' From Stage, 7' High
DSP: Sound Devices 722>Sound Forge 9.0>CD Wave>flac(16)
Recorded By: Z-Man
Seeded By: Z-Man

Disc I

01 Intro A Jam >
02 Untie >
03 Millie
04 Make It Rain
05 You Can Take The Long Way
06 Fight
07 Lasso
08 Every Road >
09 Back In Black >
10 Dirt
11 Craw
12 Happy Valentine >
13 Boogie Man
14 My House
15 Too Much
16 Road Trip

Flac Fingerprint

ssdb2013-02-14d01t01.flac:aa050a6494e4c28fbee12a93d00e14ce
ssdb2013-02-14d01t02.flac:aaaa2add83b06b5b4dea7d869da5a287
ssdb2013-02-14d01t03.flac:145e8fb1da53daf140ec014e8db4a621
ssdb2013-02-14d01t04.flac:421267b4a08b574d2030a4a03c3878b4
ssdb2013-02-14d01t05.flac:b885ca257ecb82f1185c9b0448fdf2da
ssdb2013-02-14d01t06.flac:053a997046093545b9023cbff1b6fd03
ssdb2013-02-14d01t07.flac:bad9b666d1a65bcc552a17f79260c1ab
ssdb2013-02-14d01t08.flac:10cef56efe151a5501707c0692fe0c19
ssdb2013-02-14d01t09.flac:273d1f9e9d18f233200313fabcee4923
ssdb2013-02-14d01t10.flac:8caf20c97c122b05234c07a66b88b7a3
ssdb2013-02-14d01t11.flac:b1a782f49e5685c2a65a2748a5060f95
ssdb2013-02-14d01t12.flac:70ab89de4e3528f10bf940f192a2b4cb
ssdb2013-02-14d01t13.flac:9ff33eaab85f47973066de6dbe001f2f
ssdb2013-02-14d01t14.flac:b31c1a9e59ddbf7eaf964c2d3161e6f4
ssdb2013-02-14d01t15.flac:d5778449771b5b215ef5c7f02159563e
ssdb2013-02-14d01t16.flac:afaf602ce8a5b03cef0cb868ea34f54d

Shntool

length expanded size cdr WAVE problems fmt ratio filename
4:06.66 43549676 B --- -- ---xx flac 0.5276 ssdb2013-02-14d01t01.flac
3:45.58 39826460 B --- -- ---xx flac 0.5397 ssdb2013-02-14d01t02.flac
5:32.23 58618940 B --- -- ---xx flac 0.5312 ssdb2013-02-14d01t03.flac
4:27.66 47254076 B --- -- ---xx flac 0.5281 ssdb2013-02-14d01t04.flac
3:46.24 39922892 B --- -- ---xx flac 0.5221 ssdb2013-02-14d01t05.flac
3:42.13 39191420 B --- -- ---xx flac 0.4536 ssdb2013-02-14d01t06.flac
8:06.23 85784540 B --- -- ---xx flac 0.4835 ssdb2013-02-14d01t07.flac
4:10.24 44156492 B --- -- ---xx flac 0.5239 ssdb2013-02-14d01t08.flac
2:36.66 27673676 B --- -- ---xx flac 0.5652 ssdb2013-02-14d01t09.flac
4:31.21 47853836 B --- -- ---xx flac 0.5309 ssdb2013-02-14d01t10.flac
5:20.35 56530364 B --- -- ---xx flac 0.4983 ssdb2013-02-14d01t11.flac
1:35.05 16769804 B --- -- ---xx flac 0.4963 ssdb2013-02-14d01t12.flac
4:45.71 50441036 B --- -- ---xx flac 0.5504 ssdb2013-02-14d01t13.flac
5:53.60 62410364 B --- -- ---xx flac 0.4643 ssdb2013-02-14d01t14.flac
7:06.13 75177020 B --- -- ---xx flac 0.4870 ssdb2013-02-14d01t15.flac
9:02.21 95658236 B --- -- ---xx flac 0.5099 ssdb2013-02-14d01t16.flac
78:29.64 830818832 B 0.5097 (16 files)















Checksumsssdb2013-02-14d01t01.flac:aa050a6494e4c28fbee12a93d00e14ce
ssdb2013-02-14d01t02.flac:aaaa2add83b06b5b4dea7d869da5a287
ssdb2013-02-14d01t03.flac:145e8fb1da53daf140ec014e8db4a621
ssdb2013-02-14d01t04.flac:421267b4a08b574d2030a4a03c3878b4
ssdb2013-02-14d01t05.flac:b885ca257ecb82f1185c9b0448fdf2da
ssdb2013-02-14d01t06.flac:053a997046093545b9023cbff1b6fd03
ssdb2013-02-14d01t07.flac:bad9b666d1a65bcc552a17f79260c1ab
ssdb2013-02-14d01t08.flac:10cef56efe151a5501707c0692fe0c19
ssdb2013-02-14d01t09.flac:273d1f9e9d18f233200313fabcee4923
ssdb2013-02-14d01t10.flac:8caf20c97c122b05234c07a66b88b7a3
ssdb2013-02-14d01t11.flac:b1a782f49e5685c2a65a2748a5060f95
ssdb2013-02-14d01t12.flac:70ab89de4e3528f10bf940f192a2b4cb
ssdb2013-02-14d01t13.flac:9ff33eaab85f47973066de6dbe001f2f
ssdb2013-02-14d01t14.flac:b31c1a9e59ddbf7eaf964c2d3161e6f4
ssdb2013-02-14d01t15.flac:d5778449771b5b215ef5c7f02159563e
ssdb2013-02-14d01t16.flac:afaf602ce8a5b03cef0cb868ea34f54d
TypeOther
Last seederLast activity 172 days, 18:23:44 ago
Size403.84 MB (423455035 Bytes)
Added2013-02-15 10:53:49
Views0
Hits252
Snatched37 times
Upped byzmanatl
Num files
[See full list]
17 files
Seeders
[Hide list]
0 Seeder(s)
Leechers
[Hide list]
0 Leecher(s)

Add a comment

sprobeck 2013-02-15 12:39:03
This band stinks imo. I saw them open for Govt Mule and I couldn't understand a word the singer was singing!
snowflurry 2013-02-15 14:59:43
Thanks Z!
jeffandkris 2013-02-15 21:30:50
Have yet to see them but have heard great things about them. Did pull the set from Mtn Jam last year and liked it a bunch. Your thoughts Z-Man?

Add a comment


http://etree.org : http://db.etree.org : http://forums.etree.org : http://wiki.etree.org : Legal : RSS Feed

Contents designed & maintained by the etree.org volunteers
1998-2014, etree.org, except where noted. All Rights Reserved.
Read our terms of service and privacy guidelines