bt.etree.org
etree.org Community Bittorrent Tracker
ArtistGrateful Dead
Showgd88-06-26.mk2.miller.123834.flac16
Report this as
non-Trade-Friendly
Email us
Torrentgd88-06-26.mk2.miller.123834.flac16.torrent (click to download)
Downloads asgd88-06-26.mk2.miller.123834.flac16
Info hash8f15c763a7788573dd8a8d70ee97857d65334320
db linkhttp://db.etree.org/shn/123834 | Show | Source
DescriptionGrateful Dead - June 26, 1988
Civic Arena - Pittsburgh, PA

Recording Info:
(FOB) Schoeps CMC4/MK2 -> PCM -> Dat (44.1k)

Transfer Info:
Dat (Tascam DA-20) -> Tascam SS-R05 -> Samplitude Professional v11.2.1 -> FLAC
(2 Discs Audio / 1 DVD FLAC)

All Transfers and Mastering By Charlie Miller
charliemiller87@earthlink.net
February 15, 2013

Notes:
-- Dat supplied by Greg Clark

Set 1:
d1t01 - Tuning
d1t02 - Mississippi Half-Step Uptown Toodleloo ->
d1t03 - Little Red Rooster
d1t04 - When Push Comes To Shove
d1t05 - Mama Tried ->
d1t06 - Big River ->
d1t07 - Cumberland Blues
d1t08 - Gentlemen Start Your Engines
d1t09 - Big Railroad Blues
d1t10 - The Music Never Stopped

Set 2:
d2t01 - Tuning
d2t02 - Touch Of Grey ->
d2t03 - Playing In The Band ->
d2t04 - Uncle John's Band ->
d2t05 - Playing In The Band Reprise ->
d2t06 - Drums ->
d2t07 - Space ->
d2t08 - Dear Mr. Fantasy ->
d2t09 - Hey Jude ->
d2t10 - Black Peter ->
d2t11 - Turn On Your Lovelight

Encore:
d2t12 - Black Muddy River


SHNTOOL OUTPUT:
length expanded size cdr WAVE problems fmt ratio filename
0:49.34 8723612 B --- -- ---xx flac 0.5805 gd88-06-26d1t01.flac
8:47.51 93082796 B --- -- ---xx flac 0.6361 gd88-06-26d1t02.flac
10:42.31 113321756 B --- -- ---xx flac 0.6164 gd88-06-26d1t03.flac
5:37.65 59599724 B --- -- ---xx flac 0.6150 gd88-06-26d1t04.flac
2:38.48 27984140 B --- -- ---xx flac 0.6494 gd88-06-26d1t05.flac
5:18.05 56107004 B --- -- ---xx flac 0.6476 gd88-06-26d1t06.flac
6:19.37 66942668 B --- -- ---xx flac 0.6156 gd88-06-26d1t07.flac
4:52.23 51562940 B --- -- ---xx flac 0.6271 gd88-06-26d1t08.flac
5:02.69 53435132 B --- -- ---xx flac 0.6643 gd88-06-26d1t09.flac
6:44.02 71270348 B --- -- ---xx flac 0.6775 gd88-06-26d1t10.flac
0:53.13 9379820 B --- -- ---xx flac 0.5195 gd88-06-26d2t01.flac
6:28.64 68593772 B --- -- ---xx flac 0.6782 gd88-06-26d2t02.flac
8:11.53 86737100 B --- -- ---xx flac 0.6722 gd88-06-26d2t03.flac
8:50.68 93651980 B --- -- ---xx flac 0.6678 gd88-06-26d2t04.flac
2:24.09 25422812 B --- -- ---xx flac 0.6660 gd88-06-26d2t05.flac
8:38.63 91523420 B --- -- ---xx flac 0.5202 gd88-06-26d2t06.flac
8:05.40 85648124 B --- -- ---xx flac 0.4819 gd88-06-26d2t07.flac
5:06.10 54001964 B --- -- ---xx flac 0.6533 gd88-06-26d2t08.flac
2:34.06 27179756 B --- -- ---xx flac 0.6854 gd88-06-26d2t09.flac
9:04.32 96036908 B --- -- ---xx flac 0.6439 gd88-06-26d2t10.flac
9:36.05 101618204 B --- -- ---xx flac 0.6455 gd88-06-26d2t11.flac
6:32.54 69275852 B --- -- ---xx flac 0.6279 gd88-06-26d2t12.flac
133:19.32 1411099832 B 0.6275 (22 files)
Checksumsc9719ad0734506833e0c386b3f5a780e *gd88-06-26d1t01.flac
bbe5ddd75f358ca66359515368dfed04 *gd88-06-26d1t02.flac
5dc475b6ff51f9029fc6c42e0e9cae3c *gd88-06-26d1t03.flac
04c640ab45ef0436553a7d19e9643207 *gd88-06-26d1t04.flac
1095abf1f502feb1ae2b59071d455784 *gd88-06-26d1t05.flac
38d4c2c6c3e38178120abe1b8ae410d3 *gd88-06-26d1t06.flac
799c784f403d60266c350c81230b9fb3 *gd88-06-26d1t07.flac
c189988f2e31554c179c4d6df684659a *gd88-06-26d1t08.flac
f04340e95633710eb0db912b34ad9366 *gd88-06-26d1t09.flac
b08b7da1aa8d32ceb1df6714fb4e5a16 *gd88-06-26d1t10.flac
eafcef296ab82c288dc4da858e797606 *gd88-06-26d2t01.flac
497a1d4bcfad6be78d5235844650dee4 *gd88-06-26d2t02.flac
0780e51f62c3b22f6017051f080ac71c *gd88-06-26d2t03.flac
685a59e786eb1d2f5293fa04c33602d9 *gd88-06-26d2t04.flac
7b6718f7891cb5938534ac2a7285211c *gd88-06-26d2t05.flac
bc7563cbede6cd0c6b0d745e87dbbb6d *gd88-06-26d2t06.flac
549aeefbd07a18fb30272792f3f22e62 *gd88-06-26d2t07.flac
9ee1a92bc036a634bc93709a7d3fbf4d *gd88-06-26d2t08.flac
8c70164297a31099a117220df3c8b8c0 *gd88-06-26d2t09.flac
f2b5410b83bd2ee907f33ead219676a6 *gd88-06-26d2t10.flac
a8d894e37858a68c0c326a69aa42ff90 *gd88-06-26d2t11.flac
68979a788ab86ae905dfd81629ac24cb *gd88-06-26d2t12.flac
TypeGrateful Dead
Last seederLast activity 1 day, 05:47:09 ago
Size844.47 MB (885495633 Bytes)
Added2013-02-16 10:21:07
Views0
Hits604
Snatched364 times
Upped byWHARFRAT73
Num files25 files
File List
[Hide list]
filenamesizemd5
gd88-06-26d1t03.flac66.62 MBN/A
gd88-06-26d2t11.flac62.55 MBN/A
gd88-06-26d2t04.flac59.64 MBN/A
gd88-06-26d2t10.flac58.97 MBN/A
gd88-06-26d1t02.flac56.47 MBN/A
gd88-06-26d2t03.flac55.60 MBN/A
gd88-06-26d1t10.flac46.05 MBN/A
gd88-06-26d2t06.flac45.40 MBN/A
gd88-06-26d2t02.flac44.36 MBN/A
gd88-06-26d2t12.flac41.48 MBN/A
gd88-06-26d2t07.flac39.36 MBN/A
gd88-06-26d1t07.flac39.30 MBN/A
gd88-06-26d1t04.flac34.95 MBN/A
gd88-06-26d1t06.flac34.65 MBN/A
gd88-06-26d1t09.flac33.85 MBN/A
gd88-06-26d2t08.flac33.64 MBN/A
gd88-06-26d1t08.flac30.84 MBN/A
gd88-06-26d2t09.flac17.77 MBN/A
gd88-06-26d1t05.flac17.33 MBN/A
gd88-06-26d2t05.flac16.15 MBN/A
gd88-06-26d1t01.flac4.83 MBN/A
gd88-06-26d2t01.flac4.65 MBN/A
gd88-06-26.123834.txt3.1 kBN/A
gd88-06-26.md51.2 kBN/A
gd88-06-26.ffp1.2 kBN/A
Peers
[See full list]
0 seeders, 1 leecher = 1 peer total

Add a comment

jdmatt68 2013-02-16 11:59:40
thanks! spring and summer '88 were good times.
chillwig 2013-02-16 13:50:12
this sounds great.
sprobeck 2013-02-16 14:24:48
Thank you!
chonkdog 2013-02-16 17:39:30
Sounds like a "Sweet Spot" recording!. Only indoor show of this Summer tour and Healy was running Quadraphonic Sound(Stacks hung from ceiling, back left & right) Can only slightly notice it at the end of Touch of Grey...fun times! Thanks Miller.
eddie20850 2013-02-16 19:06:24
thx, and remember the speakers in the hallways-good times yes
balto7 2013-02-17 07:12:19
Thanks very much! Sounds good to me.
cmc64 2013-02-17 09:01:07
Well I'll be. How about that!
gctaper64 2013-02-17 17:50:21
thanks charlie... sounds better than I remembered..

Add a comment


http://etree.org : http://db.etree.org : http://forums.etree.org : http://wiki.etree.org : Legal : RSS Feed

Contents designed & maintained by the etree.org volunteers
1998-2014, etree.org, except where noted. All Rights Reserved.
Read our terms of service and privacy guidelines