bt.etree.org
etree.org Community Bittorrent Tracker
ArtistRailroad Earth
ShowRailroad Earth Variety Playhouse Atlanta, Georgia 2/15/2013 (Schoeps CCM4V'S FOB)
Report this as
non-Trade-Friendly
Email us
Torrentrre2013-02-15.flac16.torrent (click to download)
Downloads asrre2013-02-15.flac16
Info hash935790ec3c305204bc1fcec97a2371eb69e76a7c
DescriptionRailroad Earth
Variety Playhouse
Atlanta, Georgia
2/15/2013

Source: Schoeps CCM4V'S(din)>Lunatec V2>Benchmark AD2K>
Sound Devices 722 (24/48)
FOB/DFC/KFC/ZFC/AARP Row 14, Between Seats 7 & 8 , 7' High
DSP: Sound Devices 722>Sound Forge 9.0>CD Wave>flac(16)
Recorded By: Z-Man
Seeded By: Z-Man

Disc I 1st Set

01 Cold Water
02 Old Dangerfield >
03 Luxury Liner
04 Storms
05 Walk Beside Me
06 Flower Between The Stones
07 Potter's Field >
08 1759 >
09 The Hunting Song

Disc II 2nd Set

01 420
02 Just So You Know
03 Colorado
04 For Love
05 Way Of The Buffalo
06 Black Bear >
07 River Intro Jam >
08 Mighty River

Disc III 2nd Set Con't

01 Too Much Information >
02 Untitled #12
03 Hard Livin'
Encore:
04 Thanks
05 Bringin' My Baby Back Home

Flac Fingerprint

rre2013-02-15d01t01.flac:6fe54d9c34502bb91ef65c3d4512327a
rre2013-02-15d01t02.flac:545058a171beedb56ba770c4098dc1a9
rre2013-02-15d01t03.flac:02935446aecba188426553dbf4f0991d
rre2013-02-15d01t04.flac:1aed4aa94ed762cf64a29c2416aab9cd
rre2013-02-15d01t05.flac:7fd709b641244d44876d204ad85d2664
rre2013-02-15d01t06.flac:0a0c71a0f6a13cc5bcf230fbed70ebe2
rre2013-02-15d01t07.flac:b27fa740120f7894caace31a67eb4717
rre2013-02-15d01t08.flac:d2cc31cd85ed1090cba79979b0c5a2d9
rre2013-02-15d01t09.flac:9d04bbd5c38f8a71023120a7d7339189
rre2013-02-15d02t01.flac:ba3328a93260278a045a462e2d3c2cd8
rre2013-02-15d02t02.flac:b5837f290cfaa0126e6e61e143a01bd6
rre2013-02-15d02t03.flac:3b3e807014c2c472141e355bd007cca7
rre2013-02-15d02t04.flac:ebaa84bfeb1cbc74a7b2feaf6e5f98b2
rre2013-02-15d02t05.flac:bd9b6b1932095709a6c8d017e0d1be3e
rre2013-02-15d02t06.flac:9f23463af2b5cb1b05a64033c6dc7351
rre2013-02-15d02t07.flac:460c1ab6337f2df54315afc121e6faa4
rre2013-02-15d02t08.flac:609838d4f205aa2957b539550ccc60bb
rre2013-02-15d03t01.flac:8f41add85807d38c5afb43a9f3cd1714
rre2013-02-15d03t02.flac:bb9233db18b36925d135c5ff90bbc15c
rre2013-02-15d03t03.flac:f393d2ee88131e0740a3ca898223b966
rre2013-02-15d03t04.flac:9f615e239c4514773cfea4bab4048226
rre2013-02-15d03t05.flac:7a269c149949fc86dd2a8e58dc082140

Shntool

length expanded size cdr WAVE problems fmt ratio filename
4:26.59 47061212 B --- -- ---xx flac 0.5613 rre2013-02-15d01t01.flac
6:50.39 72415772 B --- -- ---xx flac 0.5666 rre2013-02-15d01t02.flac
7:46.40 82296524 B --- -- ---xx flac 0.5689 rre2013-02-15d01t03.flac
6:33.26 69386396 B --- -- ---xx flac 0.5052 rre2013-02-15d01t04.flac
7:07.60 75463964 B --- -- ---xx flac 0.5518 rre2013-02-15d01t05.flac
6:13.17 65837228 B --- -- ---xx flac 0.5180 rre2013-02-15d01t06.flac
5:45.62 61003868 B --- -- ---xx flac 0.5466 rre2013-02-15d01t07.flac
10:37.18 112409180 B --- -- ---xx flac 0.6112 rre2013-02-15d01t08.flac
12:23.38 131154620 B --- -- ---xx flac 0.5843 rre2013-02-15d01t09.flac
4:28.36 47359916 B --- -- ---xx flac 0.5564 rre2013-02-15d02t01.flac
7:52.69 83423132 B --- -- ---xx flac 0.5526 rre2013-02-15d02t02.flac
9:27.32 100094108 B --- -- ---xx flac 0.5749 rre2013-02-15d02t03.flac
7:32.00 79732844 B --- -- ---xx flac 0.5653 rre2013-02-15d02t04.flac
7:31.13 79587020 B --- -- ---xx flac 0.5652 rre2013-02-15d02t05.flac
10:21.72 109713788 B --- -- ---xx flac 0.4446 rre2013-02-15d02t06.flac
3:55.73 41625740 B --- -- ---xx flac 0.5551 rre2013-02-15d02t07.flac
5:58.26 63212396 B --- -- ---xx flac 0.5701 rre2013-02-15d02t08.flac
6:27.02 68271548 B --- -- ---xx flac 0.5180 rre2013-02-15d03t01.flac
9:07.52 96613148 B --- -- ---xx flac 0.5903 rre2013-02-15d03t02.flac
9:36.42 101705228 B --- -- ---xx flac 0.5607 rre2013-02-15d03t03.flac
0:27.07 4779308 B --- -- ---xx flac 0.3869 rre2013-02-15d03t04.flac
6:09.16 65129276 B --- -- ---xx flac 0.5538 rre2013-02-15d03t05.flac
156:40.49 1658276216 B 0.5542 (22 files)








Checksumsrre2013-02-15d01t01.flac:6fe54d9c34502bb91ef65c3d4512327a
rre2013-02-15d01t02.flac:545058a171beedb56ba770c4098dc1a9
rre2013-02-15d01t03.flac:02935446aecba188426553dbf4f0991d
rre2013-02-15d01t04.flac:1aed4aa94ed762cf64a29c2416aab9cd
rre2013-02-15d01t05.flac:7fd709b641244d44876d204ad85d2664
rre2013-02-15d01t06.flac:0a0c71a0f6a13cc5bcf230fbed70ebe2
rre2013-02-15d01t07.flac:b27fa740120f7894caace31a67eb4717
rre2013-02-15d01t08.flac:d2cc31cd85ed1090cba79979b0c5a2d9
rre2013-02-15d01t09.flac:9d04bbd5c38f8a71023120a7d7339189
rre2013-02-15d02t01.flac:ba3328a93260278a045a462e2d3c2cd8
rre2013-02-15d02t02.flac:b5837f290cfaa0126e6e61e143a01bd6
rre2013-02-15d02t03.flac:3b3e807014c2c472141e355bd007cca7
rre2013-02-15d02t04.flac:ebaa84bfeb1cbc74a7b2feaf6e5f98b2
rre2013-02-15d02t05.flac:bd9b6b1932095709a6c8d017e0d1be3e
rre2013-02-15d02t06.flac:9f23463af2b5cb1b05a64033c6dc7351
rre2013-02-15d02t07.flac:460c1ab6337f2df54315afc121e6faa4
rre2013-02-15d02t08.flac:609838d4f205aa2957b539550ccc60bb
rre2013-02-15d03t01.flac:8f41add85807d38c5afb43a9f3cd1714
rre2013-02-15d03t02.flac:bb9233db18b36925d135c5ff90bbc15c
rre2013-02-15d03t03.flac:f393d2ee88131e0740a3ca898223b966
rre2013-02-15d03t04.flac:9f615e239c4514773cfea4bab4048226
rre2013-02-15d03t05.flac:7a269c149949fc86dd2a8e58dc082140
TypeRailroad Earth
Last seederLast activity 14:01 ago
Size876.50 MB (919072569 Bytes)
Added2013-02-16 10:44:01
Views0
Hits224
Snatched73 times
Upped byzmanatl
Num files
[See full list]
23 files
Peers
[See full list]
1 seeder, 0 leechers = 1 peer total

Add a comment

mjrledhead 2013-02-16 11:33:05
Thanks ZMan! Coming to moe. tonight?
Tom_of_Mule 2013-02-16 12:20:05
Thanks Z !
Tom
zmanatl 2013-02-16 15:02:08
Great throw down last night by the boys! Looking forward to Part II tonight. Here are a few videos to give you an idea of what we witnessed:

Bringin' My Baby Back Home:
http://youtu.be/ri463FIuxOY

Hard Livin':
http://youtu.be/nHWSzr_Ba94

Just So you Know
Colorado
For Love:
http://youtu.be/dqd1sWmu428

Too Much Information >
Untitled #12:
http://youtu.be/-AOOOJCW9dY

Way Of The Buffalo:
http://youtu.be/FGpGH_Dvj-Y

Black Bear >
River intro >
Mighty River:
http://youtu.be/_0JPoJHOA3s

Enjoy show #33 of 2013!

Add a comment


http://etree.org : http://db.etree.org : http://forums.etree.org : http://wiki.etree.org : Legal : RSS Feed

Contents designed & maintained by the etree.org volunteers
1998-2014, etree.org, except where noted. All Rights Reserved.
Read our terms of service and privacy guidelines