bt.etree.org
etree.org Community Bittorrent Tracker
ArtistOther
ShowRiver Whyless Variety Playhouse Atlanta, Georgia 2/15/2013 (Schoeps CCM4V'S FOB)
Report this as
non-Trade-Friendly
Email us
Torrentriver2013-02-15.flac16.torrent (click to download)
Downloads asriver2013-02-15.flac16
Info hash5a7312db52e9d9437314985d9056af83a242455e
DescriptionRiver Whyless
Variety Playhouse
Atlanta, Georgia
2/15/2013

Source: Schoeps CCM4V'S(din)>Lunatec V2>Benchmark AD2K>
Sound Devices 722 (24/48)
FOB/DFC/KFC/ZFC/AARP Row 14, Between Seats 7 & 8 , 7' High
DSP: Sound Devices 722>Sound Forge 9.0>CD Wave>flac(16)
Recorded By: Z-Man
Seeded By: Z-Man

Disc I

01 ?
02 ?
03 ?
04 ?
05 ?
06 Pigeon Feathers
07 ?
08 ?
09 ?

Flac Fingerprint

river2013-02-15d01t01.flac:7f66838ead2a7a91d8f2c3f5dfb1a4ce
river2013-02-15d01t02.flac:2fda703a9d590c1c3583233d82cff8e5
river2013-02-15d01t03.flac:6d7e165172126d6f82ec61ab99e27513
river2013-02-15d01t04.flac:4a51a63f400c77b4aba06f4f59a89422
river2013-02-15d01t05.flac:079a873cfea5b57a17a27493ef68a95d
river2013-02-15d01t06.flac:521c04cb0de91593b33d8d8f5bccfbe3
river2013-02-15d01t07.flac:ae57ad09fe8b8310e339b675a52935fa
river2013-02-15d01t08.flac:cdc720367c0559d7f2ff743497a0585e
river2013-02-15d01t09.flac:373f40c02dbb2a5371b1bd5c5b00bd90

Shntool

length expanded size cdr WAVE problems fmt ratio filename
4:21.40 46134524 B --- -- ---xx flac 0.4375 river2013-02-15d01t01.flac
3:55.18 41496380 B --- -- ---xx flac 0.3845 river2013-02-15d01t02.flac
3:45.47 39800588 B --- -- ---xx flac 0.4612 river2013-02-15d01t03.flac
5:29.58 58172060 B --- -- ---xx flac 0.4468 river2013-02-15d01t04.flac
1:51.19 19625132 B --- -- ---xx flac 0.3131 river2013-02-15d01t05.flac
6:40.13 70590620 B --- -- ---xx flac 0.4826 river2013-02-15d01t06.flac
5:37.49 59562092 B --- -- ---xx flac 0.4600 river2013-02-15d01t07.flac
7:21.58 77928860 B --- -- ---xx flac 0.5531 river2013-02-15d01t08.flac
8:28.32 89686508 B --- -- ---xx flac 0.4613 river2013-02-15d01t09.flac
47:31.34 502996764 B 0.4624 (9 files)
















Checksumsriver2013-02-15d01t01.flac:7f66838ead2a7a91d8f2c3f5dfb1a4ce
river2013-02-15d01t02.flac:2fda703a9d590c1c3583233d82cff8e5
river2013-02-15d01t03.flac:6d7e165172126d6f82ec61ab99e27513
river2013-02-15d01t04.flac:4a51a63f400c77b4aba06f4f59a89422
river2013-02-15d01t05.flac:079a873cfea5b57a17a27493ef68a95d
river2013-02-15d01t06.flac:521c04cb0de91593b33d8d8f5bccfbe3
river2013-02-15d01t07.flac:ae57ad09fe8b8310e339b675a52935fa
river2013-02-15d01t08.flac:cdc720367c0559d7f2ff743497a0585e
river2013-02-15d01t09.flac:373f40c02dbb2a5371b1bd5c5b00bd90
TypeOther
Last seederLast activity 22:02 ago
Size221.81 MB (232584482 Bytes)
Added2013-02-16 11:29:09
Views0
Hits140
Snatched13 times
Upped byzmanatl
Num files
[See full list]
10 files
Peers
[See full list]
1 seeder, 0 leechers = 1 peer total

No comments yet

Add a comment


http://etree.org : http://db.etree.org : http://forums.etree.org : http://wiki.etree.org : Legal : RSS Feed

Contents designed & maintained by the etree.org volunteers
1998-2014, etree.org, except where noted. All Rights Reserved.
Read our terms of service and privacy guidelines