bt.etree.org
etree.org Community Bittorrent Tracker
ArtistRailroad Earth
ShowRailroad Earth Variety Playhouse Atlanta, Georgia 2/16/2013 (Schoeps CCM4V'S FOB)
Report this as
non-Trade-Friendly
Email us
Torrentrre2013-02-16.flac16.torrent (click to download)
Downloads asrre2013-02-16.flac16
Info hashe75b3e0ace4245bc84fe0e1efa6b0c77b44f6c33
DescriptionRailroad Earth
Variety Playhouse
Atlanta, Georgia
2/16/2013

Source: Schoeps CCM4V'S(din)>Lunatec V2>Benchmark AD2K>
Sound Devices 722 (24/48)
FOB/DFC/KFC/ZFC/AARP Row 5, Between Seats 7 & 8 , 8' High
DSP: Sound Devices 722>Sound Forge 9.0>CD Wave>flac(16)
Recorded By: Z-Man
Seeded By: Z-Man

Disc I 1st Set

01 Been Down That Road
02 Happy Song
03 Elko >
04 The Good Life >
05 Mississippi Half-Step Uptown Toodleoo >
06 Seven Story Mountain
07 Head

Disc II 2nd Set

01 Donkey For Sale
02 Saddle Of The Sun
03 A Day On The Sand
04 Mourning Flies >
05 Lone Croft Farewell
06 Daddy-O

Disc III 2nd Set Con't

01 Bird In A House >
02 Black Elk Speaks >
03 Warhead Boogie >
04 Noise >
05 Like A Buddha >
06 420 Polka (El Cumbanchero) >
07 Give That Boy A Hand
08 Better Man
Encore:
09 Thanks
10 Walls Of Time

Flac Fingerprint

rre2013-02-16d01t01.flac:fbae7767677f7f995628d6b8583dac33
rre2013-02-16d01t02.flac:bf1de93f7909a7a31ba384433af0c86c
rre2013-02-16d01t03.flac:4621b7afafc954f8e024a6fe0e4b12ad
rre2013-02-16d01t04.flac:35c14d17fab544e769ca70a98947f232
rre2013-02-16d01t05.flac:75130a32689b49f2085197238de8bc41
rre2013-02-16d01t06.flac:2e5e5d31ac6a59892e0693df14003ee9
rre2013-02-16d01t07.flac:876aa5e0791046469db895f103651474
rre2013-02-16d02t01.flac:1af5cb5ee568388e4bdf3e0b2d4bda9a
rre2013-02-16d02t02.flac:0a4f65076953a90a27d7f1967d1f92f0
rre2013-02-16d02t03.flac:44a7c892dc4f61a5c08ff0a121757f5f
rre2013-02-16d02t04.flac:2df983cd965cb37445ee6ee420886dcb
rre2013-02-16d02t05.flac:38645751db5b57616b1253206020ed14
rre2013-02-16d02t06.flac:d06d23dbad5c1d1a45c5f11d0e41017f
rre2013-02-16d03t01.flac:1851d49927cc1c04ee6b9f06ed555f0d
rre2013-02-16d03t02.flac:2b8789af45096f2eb332f51dd0b44ce2
rre2013-02-16d03t03.flac:9ec72bcb5c175e8a8a47182b8f334cf4
rre2013-02-16d03t04.flac:94139fcc48781927bb1c8e7e3c75e169
rre2013-02-16d03t05.flac:2cf8a317f7698d9dd3abca751be1666d
rre2013-02-16d03t06.flac:da2eb784426817e02fbc3b2b70724785
rre2013-02-16d03t07.flac:e7bc7743acc363d81574f170501c7933
rre2013-02-16d03t08.flac:51aa680c44d246859a88e2fe296ace86
rre2013-02-16d03t09.flac:5b3b1e80c1113c2ed69731cea50d6a7f
rre2013-02-16d03t10.flac:c42a7e441d26ff604766046558f0a359

Shntool

length expanded size cdr WAVE problems fmt ratio filename
4:56.64 52364972 B --- -- ---xx flac 0.4633 rre2013-02-16d01t01.flac
3:44.12 39541868 B --- -- ---xx flac 0.5435 rre2013-02-16d01t02.flac
8:47.17 93002828 B --- -- ---xx flac 0.5288 rre2013-02-16d01t03.flac
8:21.01 88378796 B --- -- ---xx flac 0.5011 rre2013-02-16d01t04.flac
8:46.16 92824076 B --- -- ---xx flac 0.5038 rre2013-02-16d01t05.flac
15:29.19 163920332 B --- -- ---xx flac 0.4975 rre2013-02-16d01t06.flac
13:40.30 144718604 B --- -- ---xx flac 0.5449 rre2013-02-16d01t07.flac
7:51.04 83093852 B --- -- ---xx flac 0.5078 rre2013-02-16d02t01.flac
5:13.72 55382588 B --- -- ---xx flac 0.5406 rre2013-02-16d02t02.flac
4:35.35 48592364 B --- -- ---xx flac 0.4906 rre2013-02-16d02t03.flac
13:12.46 139817036 B --- -- ---xx flac 0.5206 rre2013-02-16d02t04.flac
5:44.21 60731036 B --- -- ---xx flac 0.5242 rre2013-02-16d02t05.flac
4:10.36 44184716 B --- -- ---xx flac 0.5114 rre2013-02-16d02t06.flac
7:06.03 75153500 B --- -- ---xx flac 0.4855 rre2013-02-16d03t01.flac
6:05.38 64475420 B --- -- ---xx flac 0.5580 rre2013-02-16d03t02.flac
9:50.52 104198348 B --- -- ---xx flac 0.5404 rre2013-02-16d03t03.flac
3:19.21 35153036 B --- -- ---xx flac 0.5738 rre2013-02-16d03t04.flac
11:26.38 121099820 B --- -- ---xx flac 0.5728 rre2013-02-16d03t05.flac
4:52.58 51645260 B --- -- ---xx flac 0.5521 rre2013-02-16d03t06.flac
1:37.63 17259020 B --- -- ---xx flac 0.5237 rre2013-02-16d03t07.flac
4:48.63 50951420 B --- -- ---xx flac 0.5242 rre2013-02-16d03t08.flac
0:43.32 7660508 B --- -- ---xx flac 0.3736 rre2013-02-16d03t09.flac
7:42.07 81513308 B --- -- ---xx flac 0.5168 rre2013-02-16d03t10.flac
162:05.73 1715662708 B 0.5229 (23 files)
















Checksumsrre2013-02-16d01t01.flac:fbae7767677f7f995628d6b8583dac33
rre2013-02-16d01t02.flac:bf1de93f7909a7a31ba384433af0c86c
rre2013-02-16d01t03.flac:4621b7afafc954f8e024a6fe0e4b12ad
rre2013-02-16d01t04.flac:35c14d17fab544e769ca70a98947f232
rre2013-02-16d01t05.flac:75130a32689b49f2085197238de8bc41
rre2013-02-16d01t06.flac:2e5e5d31ac6a59892e0693df14003ee9
rre2013-02-16d01t07.flac:876aa5e0791046469db895f103651474
rre2013-02-16d02t01.flac:1af5cb5ee568388e4bdf3e0b2d4bda9a
rre2013-02-16d02t02.flac:0a4f65076953a90a27d7f1967d1f92f0
rre2013-02-16d02t03.flac:44a7c892dc4f61a5c08ff0a121757f5f
rre2013-02-16d02t04.flac:2df983cd965cb37445ee6ee420886dcb
rre2013-02-16d02t05.flac:38645751db5b57616b1253206020ed14
rre2013-02-16d02t06.flac:d06d23dbad5c1d1a45c5f11d0e41017f
rre2013-02-16d03t01.flac:1851d49927cc1c04ee6b9f06ed555f0d
rre2013-02-16d03t02.flac:2b8789af45096f2eb332f51dd0b44ce2
rre2013-02-16d03t03.flac:9ec72bcb5c175e8a8a47182b8f334cf4
rre2013-02-16d03t04.flac:94139fcc48781927bb1c8e7e3c75e169
rre2013-02-16d03t05.flac:2cf8a317f7698d9dd3abca751be1666d
rre2013-02-16d03t06.flac:da2eb784426817e02fbc3b2b70724785
rre2013-02-16d03t07.flac:e7bc7743acc363d81574f170501c7933
rre2013-02-16d03t08.flac:51aa680c44d246859a88e2fe296ace86
rre2013-02-16d03t09.flac:5b3b1e80c1113c2ed69731cea50d6a7f
rre2013-02-16d03t10.flac:c42a7e441d26ff604766046558f0a359
TypeRailroad Earth
Last seederLast activity 2:08:05 ago
Size855.58 MB (897142939 Bytes)
Added2013-02-17 11:03:44
Views0
Hits216
Snatched71 times
Upped byzmanatl
Num files
[See full list]
24 files
Seeders
[Hide list]
0 Seeder(s)
Leechers
[Hide list]
0 Leecher(s)

Add a comment

rickyskaggs 2013-02-17 11:20:18
Nice looking sets. Any time they play Elko!. what took you so long Steve? must be getting old.
bvaz 2013-02-17 11:57:41
nice work z
sean612 2013-02-18 12:40:19
Thanks Z!

Add a comment


http://etree.org : http://db.etree.org : http://forums.etree.org : http://wiki.etree.org : Legal : RSS Feed

Contents designed & maintained by the etree.org volunteers
1998-2014, etree.org, except where noted. All Rights Reserved.
Read our terms of service and privacy guidelines