bt.etree.org
etree.org Community Bittorrent Tracker
ArtistOther
ShowRiver Whyless Variety Playhouse Atlanta, Georgia 2/16/2013 (Schoeps CCM4V'S FOB)
Report this as
non-Trade-Friendly
Email us
Torrentriver2013-02-16.flac16.torrent (click to download)
Downloads asriver2013-02-16.flac16
Info hash88308e3538e611a5ec4a3c8891ebdb94f89afa14
DescriptionRiver Whyless
Variety Playhouse
Atlanta, Georgia
2/16/2013

Source: Schoeps CCM4V'S(din)>Lunatec V2>Benchmark AD2K>
Sound Devices 722 (24/48)
FOB/DFC/KFC/ZFC/AARP Row 5, Between Seats 7 & 8 , 8' High
DSP: Sound Devices 722>Sound Forge 9.0>CD Wave>flac(16)
Recorded By: Z-Man
Seeded By: Z-Man

Disc I

01 Greeting/Tuning
02 YU
03 C Lion
04 Unfound Door
05 Windows Walk
06 Cedar Dreams II
07 Stone
08 Pigeon Feathers

Flac Fingerprint

river2013-02-16d01t01.flac:10a1aff1fc51ce95dba2f2e812b9c5df
river2013-02-16d01t02.flac:dcc666802b8762993a906f4c01e46ce1
river2013-02-16d01t03.flac:641ba224a36fcd9132ce067ab3881cbd
river2013-02-16d01t04.flac:a975254bbab967dbf7da2ca231cde5e1
river2013-02-16d01t05.flac:229295c41ff06154fd052406c2e6b732
river2013-02-16d01t06.flac:962b25135808179f9ff863075a78552b
river2013-02-16d01t07.flac:4d2b3c494e699a84469436720aad008a
river2013-02-16d01t08.flac:9a1757602f3cf423e9005573dc49fd81

Shntool

length expanded size cdr WAVE problems fmt ratio filename
0:48.62 8613068 B --- -- ---xx flac 0.3105 river2013-02-16d01t01.flac
8:58.38 94992620 B --- -- ---xx flac 0.4264 river2013-02-16d01t02.flac
5:15.03 55573100 B --- -- ---xx flac 0.4657 river2013-02-16d01t03.flac
5:07.45 54260684 B --- -- ---xx flac 0.4088 river2013-02-16d01t04.flac
5:21.56 56756156 B --- -- ---xx flac 0.4156 river2013-02-16d01t05.flac
5:18.66 56250476 B --- -- ---xx flac 0.3996 river2013-02-16d01t06.flac
9:33.14 101110172 B --- -- ---xx flac 0.4250 river2013-02-16d01t07.flac
5:59.72 63496988 B --- -- ---xx flac 0.4923 river2013-02-16d01t08.flac
46:23.56 491053264 B 0.4308 (8 files)





























Checksumsriver2013-02-16d01t01.flac:10a1aff1fc51ce95dba2f2e812b9c5df
river2013-02-16d01t02.flac:dcc666802b8762993a906f4c01e46ce1
river2013-02-16d01t03.flac:641ba224a36fcd9132ce067ab3881cbd
river2013-02-16d01t04.flac:a975254bbab967dbf7da2ca231cde5e1
river2013-02-16d01t05.flac:229295c41ff06154fd052406c2e6b732
river2013-02-16d01t06.flac:962b25135808179f9ff863075a78552b
river2013-02-16d01t07.flac:4d2b3c494e699a84469436720aad008a
river2013-02-16d01t08.flac:9a1757602f3cf423e9005573dc49fd81
TypeOther
Last seederLast activity 29 days, 22:34:09 ago
Size201.74 MB (211539758 Bytes)
Added2013-02-17 13:55:15
Views0
Hits152
Snatched15 times
Upped byzmanatl
Num files
[See full list]
9 files
Peers
[See full list]
1 seeder, 0 leechers = 1 peer total

Add a comment

setlistthief 2013-04-06 13:27:53
Thanks for sharing. Would you mind if this shared on other sites?

Add a comment


http://etree.org : http://db.etree.org : http://forums.etree.org : http://wiki.etree.org : Legal : RSS Feed

Contents designed & maintained by the etree.org volunteers
1998-2014, etree.org, except where noted. All Rights Reserved.
Read our terms of service and privacy guidelines