bt.etree.org
etree.org Community Bittorrent Tracker
ArtistGrateful Dead
Showgd1991-09-08.nak300.gidley.123844.flac2448
Report this as
non-Trade-Friendly
Email us
Torrentgd1991-09-08.nak300.gidley.123844.flac2448.torrent (click to download)
Downloads asgd1991-09-08.nak300.gidley.123844.flac2448
Info hash46074b8a6f82d77e8530ffce33a51d09524392c3
db linkhttp://db.etree.org/shn/123844 | Show | Source
DescriptionGRATEFUL DEAD
Madison Square Garden
New York NY
09-08-1991

24bit/48kHz file-set

s1t01 Touch of Grey >
s1t02 Greatest Story Ever Told
s1t03 Loser
s1t04 Minglewood Blues
s1t05 Candyman
s1t06 Big River >
s1t07 Maggie's Farm
s1t08 Row Jimmy
s1t09 Let it Grow

s2t01 Samson & Delilah
s2t02 Eyes of the World >
s2t03 Saint of Circumstance >
s2t04 Jam >
s2t05 Drums >
s2t06 Space >
s2t07 The Other One >
s2t08 Wharf Rat >
s2t09 Good Lovin'
s2t10 crowd & tuning
s2t11 Encore: Attics of My Life

OTS AUD: 2x Nakamichi CM300 w/CP4 shotguns > Sony TC-D5M >
Maxell MXS 90/100, w/no Dolby. Taped by Ted Gidley.

Transfer: MAC > Nakamichi CR-5A > Edirol FA-66 > Wavelab >
TLH > FLAC 2448 tagged. Transfer by Andrew F. 02/2013

Note: ID-98392 patches, Touch of Grey 0:00 > 1:54, crowd
end of Candyman 6:39 > Big River 0:04, Space 2:13 > 2:28.

length expanded size cdr WAVE problems fmt ratio filename
7:20.680 126915884 B cxx -- ---xx flac 0.7297 gd1991-09-08s1t01.flac
5:34.013 96195884 B cxx -- ---xx flac 0.7416 gd1991-09-08s1t02.flac
8:52.440 153342764 B cxx -- ---xx flac 0.7335 gd1991-09-08s1t03.flac
9:26.987 163292204 B cxx -- ---xx flac 0.7437 gd1991-09-08s1t04.flac
7:26.653 128636204 B cxx -- ---xx flac 0.7278 gd1991-09-08s1t05.flac
5:26.493 94030124 B cxx -- ---xx flac 0.7592 gd1991-09-08s1t06.flac
9:29.107 163902764 B cxx -- ---xx flac 0.7335 gd1991-09-08s1t07.flac
9:31.133 164486444 B cxx -- ---xx flac 0.7447 gd1991-09-08s1t08.flac
14:19.465 247525820 B cxx -- ---xx flac 0.7506 gd1991-09-08s1t09.flac
8:39.187 149525804 B cxx -- ---xx flac 0.7510 gd1991-09-08s2t01.flac
14:26.560 249569324 B cxx -- ---xx flac 0.7471 gd1991-09-08s2t02.flac
7:12.133 124454444 B cxx -- ---xx flac 0.7558 gd1991-09-08s2t03.flac
9:19.613 161168684 B cxx -- ---xx flac 0.7355 gd1991-09-08s2t04.flac
11:00.760 190298924 B cxx -- ---xx flac 0.7104 gd1991-09-08s2t05.flac
7:42.493 133198124 B cxx -- ---xx flac 0.6869 gd1991-09-08s2t06.flac
10:07.493 174958124 B cxx -- ---xx flac 0.7306 gd1991-09-08s2t07.flac
10:09.907 175653164 B cxx -- ---xx flac 0.7287 gd1991-09-08s2t08.flac
6:42.200 115833644 B cxx -- ---xx flac 0.7449 gd1991-09-08s2t09.flac
1:07.720 19503404 B cxx -- ---xx flac 0.6970 gd1991-09-08s2t10.flac
5:33.991 96189506 B cxx -- ---xx flac 0.7039 gd1991-09-08s2t11.flac
169:29.029 2928681238 B 0.7351 (20 files)

No errors occured.
Checksums1f010a47fe76660bb209f8aae0599775 *gd1991-09-08s1t01.flac
2ba6378f337160c5133cf78c138f928c *gd1991-09-08s1t02.flac
c593e04592c9f49e0ee031fc79a55198 *gd1991-09-08s1t03.flac
06eda434a5c3165d9db3cbcdde510675 *gd1991-09-08s1t04.flac
9115ca4a51d5d13e39b7cbd655ec8f81 *gd1991-09-08s1t05.flac
787d4f47e322c0d977af08bb6a218e6e *gd1991-09-08s1t06.flac
d62b6bebee4b0c38f5dae7dae22f81e9 *gd1991-09-08s1t07.flac
5a1916360c09eccc19b231e9207ed65c *gd1991-09-08s1t08.flac
73b3f0a9e58d38388ee015612612095f *gd1991-09-08s1t09.flac
262b71890567f5438047c88f7a3725df *gd1991-09-08s2t01.flac
2497921e6c20b4fa79f5724f9a91d1fb *gd1991-09-08s2t02.flac
c3651d1bf34156ea40d9c3e5017950c7 *gd1991-09-08s2t03.flac
92169e544e0f2c46276585a0167df617 *gd1991-09-08s2t04.flac
6abf10d6a1d768bdfbbb4da9f50693cd *gd1991-09-08s2t05.flac
34676061fc649609ba3bdb71f00a2704 *gd1991-09-08s2t06.flac
4ca2dd6526a9f82d31a32fac0a7f391b *gd1991-09-08s2t07.flac
037f6425b3f1639e504f21e0cdd96a47 *gd1991-09-08s2t08.flac
c0bec26a4451e3286915169eb4b2bc8b *gd1991-09-08s2t09.flac
546561dde36a63f22c69d87443c91b63 *gd1991-09-08s2t10.flac
19608435b99bbf7a2fb942a38c9b80f9 *gd1991-09-08s2t11.flac

gd1991-09-08s1t01.flac:4eb88baeda6d9a129be67889eeaa988b
gd1991-09-08s1t02.flac:7e8c13ea4f888fbcf61db9387cece36f
gd1991-09-08s1t03.flac:a578ce56eaf2fdc8604c69733d307f6a
gd1991-09-08s1t04.flac:9d26d2bb992fabdb2991a66d9601c402
gd1991-09-08s1t05.flac:41429315900c9544ce818869e285ef65
gd1991-09-08s1t06.flac:47f53ebca5d4eb354d275ebeaa41d061
gd1991-09-08s1t07.flac:2545198cb9367264db6238a16a9c153b
gd1991-09-08s1t08.flac:4e3f788856af6310e6c0325367637d4e
gd1991-09-08s1t09.flac:980d207e53e5f491ea6fd4af25c23d4e
gd1991-09-08s2t01.flac:32db3d1328a1b241f3ef2183a1fbf6bf
gd1991-09-08s2t02.flac:b63d747ffbe515d92f101b6ba33a1c5b
gd1991-09-08s2t03.flac:646912fe709db4722a610400888fdb90
gd1991-09-08s2t04.flac:d2d71c4e3667c3ef24cd08dece62cb30
gd1991-09-08s2t05.flac:0061cc40a4d0c7c0d33521531709d03b
gd1991-09-08s2t06.flac:76bf71b76dcb771b078f166a6638e23b
gd1991-09-08s2t07.flac:ad61c4a75aa029049b48ea10424a1bb2
gd1991-09-08s2t08.flac:c67d6b3003f4bbf127e2d50b53c3c4d3
gd1991-09-08s2t09.flac:d26bea1d8c76472dc9f8fc1a8a29e09e
gd1991-09-08s2t10.flac:4ca4b79d4fcf3b739716b6c7700b9da2
gd1991-09-08s2t11.flac:4772377beb2c132e872cbc06c877b92a
TypeGrateful Dead
Last seederLast activity 24 days, 02:23:54 ago
Size2.005 GB (2152890880 Bytes)
Added2013-02-17 17:11:46
Views3
Hits292
Snatched106 times
Upped bynfagdtrfb
Num files
[See full list]
25 files
Peers
[See full list]
1 seeder, 0 leechers = 1 peer total

Add a comment

rhythmdevil12158 2013-02-17 19:23:12
Classic 2x Nakamichi CM300 w/CP4 shotguns > Sony TC-D5M sound quality. Nak 300's seem to me to capture Phil so well.

Thanks for the share.
sprobeck 2013-02-18 13:15:25
Thanks!!

Add a comment


http://etree.org : http://db.etree.org : http://forums.etree.org : http://wiki.etree.org : Legal : RSS Feed

Contents designed & maintained by the etree.org volunteers
1998-2014, etree.org, except where noted. All Rights Reserved.
Read our terms of service and privacy guidelines