bt.etree.org
etree.org Community Bittorrent Tracker
Artistmoe.
Showmoe. 2013-02-16 The Tabernacle, Atlanta, Ga. akg426
Report this as
non-Trade-Friendly
Email us
Torrentmoe.2013-02-16.akg426.flac16.torrent (click to download)
Downloads asmoe.2013-02-16.akg426.flac16
Info hash595274180bbe3c1bf79583e5aa4a1ee654741c22
Descriptionmoe.
2013-02-16
The Tabernacle, Atlanta, Ga.

Source: AKG c426b (xy 90, dfc, 1st balcony rail)>V3 (24/192)>sd722
Transfer: firewire>[wavelab 6.10: Crystal Resampler (downsample) iZotope Ozone 4 (dither)]>CDWav (splits)>FLACFrontend>foobar 2000 (tags)
taped and transferred by John Barren
A Team Dirty South Recording

Set 1
01. tuning
02. Skrunk>
03. The Bones Of Lazarus
04. Kids
05. Casey Jones
06. Happy Hour Hero*
07. Tailspin>
08. Billy Goat

Set 2
01. tuning
02. Seat Of My Pants>
03. YOY>
04. Down Boy
05. Deep This Time
06. Letter Home
07. Haze>
08. Rebubula
09. crowd
Encore:
10. Alnouncements
11. Willin'
12. Akimbo
13. Stranger Than Fiction

* with Chris Michetti

Shntool
length expanded size cdr WAVE problems fmt ratio filename
1:23.65 14794124 B --- -- ---xx flac 0.4160 moe.2013-02-16s1t01.flac
9:50.46 104184236 B --- -- ---xx flac 0.5024 moe.2013-02-16s1t02.flac
8:22.71 88719836 B --- -- ---xx flac 0.5109 moe.2013-02-16s1t03.flac
15:14.07 161246108 B --- -- ---xx flac 0.5106 moe.2013-02-16s1t04.flac
7:14.17 76597628 B --- -- ---xx flac 0.5133 moe.2013-02-16s1t05.flac
10:50.57 114794108 B --- -- ---xx flac 0.5211 moe.2013-02-16s1t06.flac
9:02.71 95775836 B --- -- ---xx flac 0.5271 moe.2013-02-16s1t07.flac
12:18.35 130265564 B --- -- ---xx flac 0.5062 moe.2013-02-16s1t08.flac
0:14.45 2575484 B --- -- ---xx flac 0.3866 moe.2013-02-16s2t01.flac
10:41.20 113119484 B --- -- ---xx flac 0.5373 moe.2013-02-16s2t02.flac
8:57.40 94820924 B --- -- ---xx flac 0.4977 moe.2013-02-16s2t03.flac
8:27.31 89507756 B --- -- ---xx flac 0.4979 moe.2013-02-16s2t04.flac
5:30.09 58233212 B --- -- ---xx flac 0.5137 moe.2013-02-16s2t05.flac
4:38.46 49147436 B --- -- ---xx flac 0.4703 moe.2013-02-16s2t06.flac
12:32.52 132775148 B --- -- ---xx flac 0.5077 moe.2013-02-16s2t07.flac
20:35.54 217981052 B --- -- ---xx flac 0.5168 moe.2013-02-16s2t08.flac
3:56.71 41797436 B --- -- ---xx flac 0.4580 moe.2013-02-16s2t09.flac
1:54.48 20222540 B --- -- ---xx flac 0.4756 moe.2013-02-16s2t10.flac
4:23.24 46449692 B --- -- ---xx flac 0.4434 moe.2013-02-16s2t11.flac
6:58.11 73761116 B --- -- ---xx flac 0.5313 moe.2013-02-16s2t12.flac
4:35.02 48514748 B --- -- ---xx flac 0.5094 moe.2013-02-16s2t13.flac
167:43.72 1775283468 B 0.5079 (21 files)

Checksumsmoe.2013-02-16s1t01.flac:a22286166d429f189075efd08ba58a0c<br />
moe.2013-02-16s1t02.flac:4bc2c1c7eb5c193cda13a5ec21f7a984<br />
moe.2013-02-16s1t03.flac:884dcabca1f6c7d16967f6806d107c3b<br />
moe.2013-02-16s1t04.flac:f1ada22d0c43c0582d0bf606220aa912<br />
moe.2013-02-16s1t05.flac:a5f307b4ca16d8e88cef846168f53647<br />
moe.2013-02-16s1t06.flac:54554db74fbbea445ed55821bb492863<br />
moe.2013-02-16s1t07.flac:ac28bd1a0b6540d20021ca69e483c217<br />
moe.2013-02-16s1t08.flac:abcd376a2c3339bddd7c0734d7ac1505<br />
moe.2013-02-16s2t01.flac:480636a989516ad66597811fc4480eab<br />
moe.2013-02-16s2t02.flac:2c9e888bab55b406955b5d77a905027a<br />
moe.2013-02-16s2t03.flac:8673211e4f245b58ab0ba759701a2630<br />
moe.2013-02-16s2t04.flac:e37089ca551272e27b04a506124af81d<br />
moe.2013-02-16s2t05.flac:b7940ace58003440721604b5f9f4d3e3<br />
moe.2013-02-16s2t06.flac:fa82937b8ba24594a5e7c10cc8712e69<br />
moe.2013-02-16s2t07.flac:ee668977a44359c3c671de67e3b6e792<br />
moe.2013-02-16s2t08.flac:f630e59778d2537bf6afe0dbf1a56f15<br />
moe.2013-02-16s2t09.flac:2c742958f9f8f16b6f668dac1a9c604a<br />
moe.2013-02-16s2t10.flac:f5cee1bb997017186fd94da38bbb7d4b<br />
moe.2013-02-16s2t11.flac:58395584b87800a15e679c397d85a805<br />
moe.2013-02-16s2t12.flac:bd9a4c1ff14e20a7622f83eee9df19e4<br />
moe.2013-02-16s2t13.flac:39627129e3b3968758e4051481c3e872<br />
Typemoe.
Last seederLast activity 8:33 ago
Size859.83 MB (901597130 Bytes)
Added2013-02-17 18:10:41
Views0
Hits353
Snatched153 times
Upped bybarren
Num files
[See full list]
23 files
Seeders
[Hide list]
3 Seeder(s)
ip:portclient
version
ul
bytes
dl
bytes
ratiocompleteul
rate
dl
rate
time
connected
time
left
idle
174.56.32.xxx:53846 μtorrent 3.4.2.0 0 B 0 B N/A 100.00%
N/A N/A 2 days, 12:21:35 N/A 19:15
72.152.76.xxx:35721 μtorrent 2.2.1.0 0 B 0 B N/A 100.00%
N/A N/A 7 days, 07:52:19 N/A 8:33
32.213.126.xxx:34135 μtorrent 3.1.3.0 0 B 0 B N/A 100.00%
N/A N/A 7 days, 07:50:11 N/A 12:54
0 of 3 firewalled (0%) 100.00%
N/AN/A
Leechers
[Hide list]
0 Leecher(s)

Add a comment

bvaz 2013-02-17 20:03:32
thanks
scootertrash 2013-02-17 20:31:47
thanks Dad - sorry I couldnt make it.
jdmatt68 2013-02-17 20:44:15
thanks!
mjrledhead 2013-02-17 21:17:01
Thanks so much!

Add a comment


http://etree.org : http://db.etree.org : http://forums.etree.org : http://wiki.etree.org : Legal : RSS Feed

Contents designed & maintained by the etree.org volunteers
1998-2014, etree.org, except where noted. All Rights Reserved.
Read our terms of service and privacy guidelines