bt.etree.org
etree.org Community Bittorrent Tracker
ArtistRailroad Earth
ShowTodd Shaeffer Solo Acoustic Lewis Mountain Ramble Rydal, Georgia 2/17/2013 (Schoeps CCM4V'S FOB)
Report this as
non-Trade-Friendly
Email us
Torrenttodd2013-02-17.flac16.torrent (click to download)
Downloads astodd2013-02-17.flac16
Info hasha6c3edf22f1b9497c3e18e37479505a6237d4e77
DescriptionTodd Shaeffer Solo Acoustic
Lewis Mountain Ramble
Rydal, Georgia
2/17/2013

Source: Schoeps CCM4V'S(din)>Lunatec V2>Benchmark AD2K>
Sound Devices 722 (24/48)
FOB/DFC/KFC/ZFC/AARP Clamped To Platform Below Ceiling, 15' From Stage, 8' High
DSP: Sound Devices 722>Sound Forge 9.0>CD Wave>flac(16)
Recorded By: Z-Man
Seeded By: Z-Man

Disc I 1st Set

01 Introduction By Joshua Lewis
o2 Where Songs Begin
03 When The Wind Blows
04 The Good Life
05 Beneathe The Stars
06 How Long Must One Endure
07 The Goat
08 Hard Livin'
09 Spacey Johnny
10 Way Over Yonder In The Minor Key

Disc II 2nd Set

01 Tuning
o2 Peggy-O
03 Peace On Earth
04 Wakin' By
05 Right In Tune
06 Greta Green Part I
07 Greta Green Part II
08 I Only Want
09 Bangin' Out A Melody
10 A Hard Rain's A Gonna Fall
11 Railroad Earth
Encore:
12 Joshua Lewis Bring Em' Back
13 Keep Movin' On
14 Storms

Flac Fingerprint

todd2013-02-17d01t01.flac:a76a33d09185c6387fbe7707b5c514c6
todd2013-02-17d01t02.flac:4bed4adebd73d6c080a04b7a4f50cedf
todd2013-02-17d01t03.flac:28f22407d837cc36e0788988ab558128
todd2013-02-17d01t04.flac:ab5dd33fcd101462dd8f3f02b7052e9a
todd2013-02-17d01t05.flac:ff77378f3d974be7759be2427a49336d
todd2013-02-17d01t06.flac:3d539721e924bc666dfa19f384d87081
todd2013-02-17d01t07.flac:26b4104c65760177a9b872038195abe9
todd2013-02-17d01t08.flac:4d299cc2a6798dfd61724e5bce004c6e
todd2013-02-17d01t09.flac:52c17799b9bd3ad8e4be55caa9b54a4c
todd2013-02-17d01t10.flac:81e81c4482a1fbaa4fd0a24eb6e9eb6b
todd2013-02-17d02t01.flac:ccf719aa1b0d6e208f4cbfdbd7c99d46
todd2013-02-17d02t02.flac:b5417c581dc5de1de4960186a39a07c4
todd2013-02-17d02t03.flac:3d62fb22e26eaefb0295c9a8000380b3
todd2013-02-17d02t04.flac:7664564b9955160d895e840a3081bf4d
todd2013-02-17d02t05.flac:92cc85ff9e21806fac10543eebc915c3
todd2013-02-17d02t06.flac:fd946d5f18f8dc31e842a074a9929000
todd2013-02-17d02t07.flac:67c90ccb55cdb0d4500d2bb21853b994
todd2013-02-17d02t08.flac:885b614714d135c539928733e3bc3303
todd2013-02-17d02t09.flac:81090dd77d924e6fd97d0c08b925bcc6
todd2013-02-17d02t10.flac:b14ae98a68847b5054c45ca84bb37f14
todd2013-02-17d02t11.flac:dd0d67b82cf2ea7ad041f01f12cede90
todd2013-02-17d02t12.flac:8f6e2c636a8f565d90b553b60db12e65
todd2013-02-17d02t13.flac:5ed9dba6577585958ab3ebf7e31e9724
todd2013-02-17d02t14.flac:71465b80b13dc1894050ae44dd81ea37

Shntool

length expanded size cdr WAVE problems fmt ratio filename
1:34.32 16656908 B --- -- ---xx flac 0.3380 todd2013-02-17d01t01.flac
5:35.22 59145788 B --- -- ---xx flac 0.3848 todd2013-02-17d01t02.flac
4:13.25 44688044 B --- -- ---xx flac 0.4220 todd2013-02-17d01t03.flac
6:22.63 67533020 B --- -- ---xx flac 0.4236 todd2013-02-17d01t04.flac
3:57.16 41844476 B --- -- ---xx flac 0.3400 todd2013-02-17d01t05.flac
5:16.39 55834172 B --- -- ---xx flac 0.4122 todd2013-02-17d01t06.flac
6:53.42 72952028 B --- -- ---xx flac 0.4249 todd2013-02-17d01t07.flac
5:12.74 55210892 B --- -- ---xx flac 0.4788 todd2013-02-17d01t08.flac
6:51.04 72509852 B --- -- ---xx flac 0.3469 todd2013-02-17d01t09.flac
5:00.18 52962380 B --- -- ---xx flac 0.3576 todd2013-02-17d01t10.flac
0:23.54 4184252 B --- -- ---xx flac 0.3814 todd2013-02-17d02t01.flac
8:21.29 88444652 B --- -- ---xx flac 0.3624 todd2013-02-17d02t02.flac
5:34.13 58948220 B --- -- ---xx flac 0.4216 todd2013-02-17d02t03.flac
5:43.70 60669884 B --- -- ---xx flac 0.3566 todd2013-02-17d02t04.flac
4:40.66 49547276 B --- -- ---xx flac 0.4435 todd2013-02-17d02t05.flac
1:38.05 17299004 B --- -- ---xx flac 0.3298 todd2013-02-17d02t06.flac
6:16.35 66408764 B --- -- ---xx flac 0.3201 todd2013-02-17d02t07.flac
6:05.38 64475420 B --- -- ---xx flac 0.4517 todd2013-02-17d02t08.flac
6:38.69 70369532 B --- -- ---xx flac 0.3992 todd2013-02-17d02t09.flac
9:35.61 101573516 B --- -- ---xx flac 0.3955 todd2013-02-17d02t10.flac
4:43.40 50015324 B --- -- ---xx flac 0.3871 todd2013-02-17d02t11.flac
1:07.16 11856476 B --- -- ---xx flac 0.4475 todd2013-02-17d02t12.flac
3:38.70 38619884 B --- -- ---xx flac 0.4172 todd2013-02-17d02t13.flac
6:50.64 72474572 B --- -- ---xx flac 0.4318 todd2013-02-17d02t14.flac
122:16.65 1294224336 B 0.3965 (24 files)














Checksumstodd2013-02-17d01t01.flac:a76a33d09185c6387fbe7707b5c514c6<br />
todd2013-02-17d01t02.flac:4bed4adebd73d6c080a04b7a4f50cedf<br />
todd2013-02-17d01t03.flac:28f22407d837cc36e0788988ab558128<br />
todd2013-02-17d01t04.flac:ab5dd33fcd101462dd8f3f02b7052e9a<br />
todd2013-02-17d01t05.flac:ff77378f3d974be7759be2427a49336d<br />
todd2013-02-17d01t06.flac:3d539721e924bc666dfa19f384d87081<br />
todd2013-02-17d01t07.flac:26b4104c65760177a9b872038195abe9<br />
todd2013-02-17d01t08.flac:4d299cc2a6798dfd61724e5bce004c6e<br />
todd2013-02-17d01t09.flac:52c17799b9bd3ad8e4be55caa9b54a4c<br />
todd2013-02-17d01t10.flac:81e81c4482a1fbaa4fd0a24eb6e9eb6b<br />
todd2013-02-17d02t01.flac:ccf719aa1b0d6e208f4cbfdbd7c99d46<br />
todd2013-02-17d02t02.flac:b5417c581dc5de1de4960186a39a07c4<br />
todd2013-02-17d02t03.flac:3d62fb22e26eaefb0295c9a8000380b3<br />
todd2013-02-17d02t04.flac:7664564b9955160d895e840a3081bf4d<br />
todd2013-02-17d02t05.flac:92cc85ff9e21806fac10543eebc915c3<br />
todd2013-02-17d02t06.flac:fd946d5f18f8dc31e842a074a9929000<br />
todd2013-02-17d02t07.flac:67c90ccb55cdb0d4500d2bb21853b994<br />
todd2013-02-17d02t08.flac:885b614714d135c539928733e3bc3303<br />
todd2013-02-17d02t09.flac:81090dd77d924e6fd97d0c08b925bcc6<br />
todd2013-02-17d02t10.flac:b14ae98a68847b5054c45ca84bb37f14<br />
todd2013-02-17d02t11.flac:dd0d67b82cf2ea7ad041f01f12cede90<br />
todd2013-02-17d02t12.flac:8f6e2c636a8f565d90b553b60db12e65<br />
todd2013-02-17d02t13.flac:5ed9dba6577585958ab3ebf7e31e9724<br />
todd2013-02-17d02t14.flac:71465b80b13dc1894050ae44dd81ea37
TypeRailroad Earth
Last seederLast activity 29:36 ago
Size489.40 MB (513168837 Bytes)
Added2013-02-18 07:10:15
Views0
Hits280
Snatched97 times
Upped byzmanatl
Num files
[See full list]
25 files
Seeders
[Hide list]
2 Seeder(s)
ip:portclient
version
ul
bytes
dl
bytes
ratiocompleteul
rate
dl
rate
time
connected
time
left
idle
68.184.20.xxx:14293 μtorrent 3.4.2.0 0 B 0 B N/A 100.00%
N/A N/A 4 days, 21:09:16 N/A 12:56
174.56.32.xxx:53846 μtorrent 3.4.2.0 0 B 0 B N/A 100.00%
N/A N/A 3:29:43 N/A 29:36
0 of 2 firewalled (0%) 100.00%
N/AN/A
Leechers
[Hide list]
0 Leecher(s)

Add a comment

robo 2013-02-18 11:20:01
Nice. Thanks Z!
gladug 2013-02-19 03:34:02
Great recording! The missing song title d02t08 is a From Good Homes song called "I Only Want"

Add a comment


http://etree.org : http://db.etree.org : http://forums.etree.org : http://wiki.etree.org : Legal : RSS Feed

Contents designed & maintained by the etree.org volunteers
1998-2014, etree.org, except where noted. All Rights Reserved.
Read our terms of service and privacy guidelines