bt.etree.org
etree.org Community Bittorrent Tracker
ArtistOther
ShowTruett Lollis Band Darwin's Burgers And Blues Marietta, Georgia 2/18/2013 (Schoeps CCM4V'S FOB)
Report this as
non-Trade-Friendly
Email us
Torrenttruett2013-02-18.flac16.torrent (click to download)
Downloads astruett2013-02-18.flac16
Info hashde6566aee6f8609fd2abcbf930c681b0a2ead5cd
DescriptionTruett Lollis Band
Darwin's Burgers And Blues
Marietta, Georgia
2/18/2013

Source: Schoeps CCM4V'S(din)>Lunatec V2>Benchmark AD2K>
Sound Devices 722 (24/48)
FOB/DFC/KFC/ZFC/AARP Stage Lip, 6' High
DSP: Sound Devices 722>Sound Forge 9.0>CD Wave>flac(16)
Recorded By: Z-Man
Seeded By: Z-Man

Disc I 1st Set

01 Jam
02 You're Gonna Miss Me Little Darlin'
03 Born Under A Bad Sign
04 Sometimes Love Ain't Enough
05 ?
06 Hold On To Whatever You Want
07 Get Out My Life Woman
08 Lay Back Down
09 Happy Birthday Matty B
10 *One Way out
11 *Messin' Around On Me
12 It Could Be You
13 Banter

Disc II 1st Set Con't

01 These Funkin' Blues Is Killin' Me
02 Everything's Gonna Be Alright
03 Scandalous
04 Melissa
2nd Set:
05 Banter/Tuning
06 Valerie
07 Use Me >
08 Drum Solo >
09 Drums And Bass >
10 Use Me

Disc III 2nd Set Con't

01 Banter
02 #The Way I See You
03 *Cold Shot
04 Banter
05 *@Ain't no Sunshine
06 ^Crossroads
07 ^Lonely Night In Georgia
3rd Set:
08 Banter
09 Lay Back Down
10 ^Statesboro Blues
11 ^Little Wing
12 Band Introductions/Outro

* With John McKnight On Drums
# With Harper Harris On Harmonica
@ With D Harper On Drums
^ With Brendan McMackin On Harmonica

Flac Fingerprint

truett2013-02-18d01t01.flac:f5ecd082e8b8553f9c1c298ed0330572
truett2013-02-18d01t02.flac:30dadb15830683abbfb7143e0751139e
truett2013-02-18d01t03.flac:1421d1f87e535af315d1f83e56aa05fc
truett2013-02-18d01t04.flac:d68b38aaf6e40d7726edb2e7ba738085
truett2013-02-18d01t05.flac:c7aaba6bd21ebc3da2b9252e61121b73
truett2013-02-18d01t06.flac:c8d775787d0b524c9f33a627fc348813
truett2013-02-18d01t07.flac:1334d74572e5efbfa11ac94f1db54bcb
truett2013-02-18d01t08.flac:bde49bec928f99839b5736640f6da60f
truett2013-02-18d01t09.flac:528c9ca6f775200cc0aea6bd276d0713
truett2013-02-18d01t10.flac:376fa5f02e734e2c52984b8b2e12a754
truett2013-02-18d01t11.flac:3ca1fd1a5ea51ae424751cd5eda09e2f
truett2013-02-18d01t12.flac:c1a806f3aae98f9e66d891a2020a2a0b
truett2013-02-18d01t13.flac:bbccfb8c96af8aafdd2ab35e8ba40cf5
truett2013-02-18d02t01.flac:1f8de444d13cfbbb51de99ada3c7832d
truett2013-02-18d02t02.flac:44c51d2b09b1ce452734262bf2fa4d9e
truett2013-02-18d02t03.flac:fd9eca6d22404d0243acd0c70c0af1ac
truett2013-02-18d02t04.flac:d4bfac4de8dcf470b4adb03539c4c96d
truett2013-02-18d02t05.flac:f578d5d865ce9b0f12651de56584e1ee
truett2013-02-18d02t06.flac:31ec4543b18922b46e5070805831bc19
truett2013-02-18d02t07.flac:43fc82cae3ef6c3738901d9d20b0b512
truett2013-02-18d02t08.flac:ca6119332de68b53605c6ab992b5527c
truett2013-02-18d02t09.flac:f6e3907af8bed65cec0084f18bdf6ae5
truett2013-02-18d02t10.flac:bd1a2f2219f4f337985a4774efdda883
truett2013-02-18d03t01.flac:1db8c5dcb5f357e88e4e88292692c5bf
truett2013-02-18d03t02.flac:09dd485ac7a169b089dccf22600c7d88
truett2013-02-18d03t03.flac:c7b4d56bc86e4ea5eb4b1179398983a3
truett2013-02-18d03t04.flac:714ec04a476b0084c36477cba6fada7b
truett2013-02-18d03t05.flac:f0614bad87196b0f814d37d7e9ac80e3
truett2013-02-18d03t06.flac:f820ff313f11d99c08cd210a182cdc66
truett2013-02-18d03t07.flac:12fa20f2c1a622c87882948a24b766ad
truett2013-02-18d03t08.flac:2b718a3a144c5bdcb585cd66d7d8ea82
truett2013-02-18d03t09.flac:a805368cae0becd5f64a05563c652e1d
truett2013-02-18d03t10.flac:2321152df36addb17c0e2e898c22563e
truett2013-02-18d03t11.flac:524039344b583d78d5eca7082f9b1e1a
truett2013-02-18d03t12.flac:18616d918b64efbb312557c416387d7b

Shntool

length expanded size cdr WAVE problems fmt ratio filename
4:05.15 43253324 B --- -- ---xx flac 0.4888 truett2013-02-18d01t01.flac
5:20.47 56558588 B --- -- ---xx flac 0.5042 truett2013-02-18d01t02.flac
6:02.04 63866252 B --- -- ---xx flac 0.5319 truett2013-02-18d01t03.flac
5:59.74 63501692 B --- -- ---xx flac 0.5174 truett2013-02-18d01t04.flac
4:54.62 52007468 B --- -- ---xx flac 0.5666 truett2013-02-18d01t05.flac
5:48.63 61535420 B --- -- ---xx flac 0.5051 truett2013-02-18d01t06.flac
12:25.53 131542700 B --- -- ---xx flac 0.5540 truett2013-02-18d01t07.flac
5:49.00 61563644 B --- -- ---xx flac 0.5009 truett2013-02-18d01t08.flac
2:17.52 24289148 B --- -- ---xx flac 0.3911 truett2013-02-18d01t09.flac
5:45.45 60963884 B --- -- ---xx flac 0.5303 truett2013-02-18d01t10.flac
7:12.59 76343612 B --- -- ---xx flac 0.5322 truett2013-02-18d01t11.flac
3:22.21 35682236 B --- -- ---xx flac 0.5840 truett2013-02-18d01t12.flac
2:56.35 31128764 B --- -- ---xx flac 0.3898 truett2013-02-18d01t13.flac
4:49.33 51057260 B --- -- ---xx flac 0.5389 truett2013-02-18d02t01.flac
7:20.35 77698364 B --- -- ---xx flac 0.4934 truett2013-02-18d02t02.flac
9:20.56 98915756 B --- -- ---xx flac 0.5556 truett2013-02-18d02t03.flac
8:20.38 88289420 B --- -- ---xx flac 0.4941 truett2013-02-18d02t04.flac
1:08.16 12032876 B --- -- ---xx flac 0.3680 truett2013-02-18d02t05.flac
7:08.73 75670940 B --- -- ---xx flac 0.4846 truett2013-02-18d02t06.flac
7:58.40 84413324 B --- -- ---xx flac 0.5564 truett2013-02-18d02t07.flac
3:18.40 35021324 B --- -- ---xx flac 0.5246 truett2013-02-18d02t08.flac
2:04.54 22000652 B --- -- ---xx flac 0.5499 truett2013-02-18d02t09.flac
2:44.65 29082524 B --- -- ---xx flac 0.4895 truett2013-02-18d02t10.flac
1:53.64 20083772 B --- -- ---xx flac 0.3332 truett2013-02-18d03t01.flac
6:25.08 67932860 B --- -- ---xx flac 0.4854 truett2013-02-18d03t02.flac
5:47.52 61333148 B --- -- ---xx flac 0.4981 truett2013-02-18d03t03.flac
2:01.53 21469100 B --- -- ---xx flac 0.3410 truett2013-02-18d03t04.flac
7:52.28 83326700 B --- -- ---xx flac 0.4563 truett2013-02-18d03t05.flac
7:11.11 76054316 B --- -- ---xx flac 0.5169 truett2013-02-18d03t06.flac
9:14.50 97843244 B --- -- ---xx flac 0.5133 truett2013-02-18d03t07.flac
1:35.74 16932092 B --- -- ---xx flac 0.3860 truett2013-02-18d03t08.flac
7:04.72 74962988 B --- -- ---xx flac 0.4502 truett2013-02-18d03t09.flac
7:25.55 78627404 B --- -- ---xx flac 0.5058 truett2013-02-18d03t10.flac
7:34.33 80163260 B --- -- ---xx flac 0.5103 truett2013-02-18d03t11.flac
1:11.63 12672620 B --- -- ---xx flac 0.4256 truett2013-02-18d03t12.flac
191:35.43 2027820676 B 0.5054 (35 files)



Checksumstruett2013-02-18d01t01.flac:f5ecd082e8b8553f9c1c298ed0330572<br />
truett2013-02-18d01t02.flac:30dadb15830683abbfb7143e0751139e<br />
truett2013-02-18d01t03.flac:1421d1f87e535af315d1f83e56aa05fc<br />
truett2013-02-18d01t04.flac:d68b38aaf6e40d7726edb2e7ba738085<br />
truett2013-02-18d01t05.flac:c7aaba6bd21ebc3da2b9252e61121b73<br />
truett2013-02-18d01t06.flac:c8d775787d0b524c9f33a627fc348813<br />
truett2013-02-18d01t07.flac:1334d74572e5efbfa11ac94f1db54bcb<br />
truett2013-02-18d01t08.flac:bde49bec928f99839b5736640f6da60f<br />
truett2013-02-18d01t09.flac:528c9ca6f775200cc0aea6bd276d0713<br />
truett2013-02-18d01t10.flac:376fa5f02e734e2c52984b8b2e12a754<br />
truett2013-02-18d01t11.flac:3ca1fd1a5ea51ae424751cd5eda09e2f<br />
truett2013-02-18d01t12.flac:c1a806f3aae98f9e66d891a2020a2a0b<br />
truett2013-02-18d01t13.flac:bbccfb8c96af8aafdd2ab35e8ba40cf5<br />
truett2013-02-18d02t01.flac:1f8de444d13cfbbb51de99ada3c7832d<br />
truett2013-02-18d02t02.flac:44c51d2b09b1ce452734262bf2fa4d9e<br />
truett2013-02-18d02t03.flac:fd9eca6d22404d0243acd0c70c0af1ac<br />
truett2013-02-18d02t04.flac:d4bfac4de8dcf470b4adb03539c4c96d<br />
truett2013-02-18d02t05.flac:f578d5d865ce9b0f12651de56584e1ee<br />
truett2013-02-18d02t06.flac:31ec4543b18922b46e5070805831bc19<br />
truett2013-02-18d02t07.flac:43fc82cae3ef6c3738901d9d20b0b512<br />
truett2013-02-18d02t08.flac:ca6119332de68b53605c6ab992b5527c<br />
truett2013-02-18d02t09.flac:f6e3907af8bed65cec0084f18bdf6ae5<br />
truett2013-02-18d02t10.flac:bd1a2f2219f4f337985a4774efdda883<br />
truett2013-02-18d03t01.flac:1db8c5dcb5f357e88e4e88292692c5bf<br />
truett2013-02-18d03t02.flac:09dd485ac7a169b089dccf22600c7d88<br />
truett2013-02-18d03t03.flac:c7b4d56bc86e4ea5eb4b1179398983a3<br />
truett2013-02-18d03t04.flac:714ec04a476b0084c36477cba6fada7b<br />
truett2013-02-18d03t05.flac:f0614bad87196b0f814d37d7e9ac80e3<br />
truett2013-02-18d03t06.flac:f820ff313f11d99c08cd210a182cdc66<br />
truett2013-02-18d03t07.flac:12fa20f2c1a622c87882948a24b766ad<br />
truett2013-02-18d03t08.flac:2b718a3a144c5bdcb585cd66d7d8ea82<br />
truett2013-02-18d03t09.flac:a805368cae0becd5f64a05563c652e1d<br />
truett2013-02-18d03t10.flac:2321152df36addb17c0e2e898c22563e<br />
truett2013-02-18d03t11.flac:524039344b583d78d5eca7082f9b1e1a<br />
truett2013-02-18d03t12.flac:18616d918b64efbb312557c416387d7b
TypeOther
Last seederLast activity 114 days, 03:59:10 ago
Size977.37 MB (1024846545 Bytes)
Added2013-02-19 20:45:30
Views0
Hits137
Snatched14 times
Upped byzmanatl
Num files
[See full list]
36 files
Peers
[See full list]
0 seeders, 1 leecher = 1 peer total

Add a comment

ddyche 2013-02-20 09:11:55
ed disc 2 track 4 is Melissa not Jessica oh ed
robo 2013-02-20 09:16:52
Did you upload this one while you were streaming The Ringers last night?

Add a comment


http://etree.org : http://db.etree.org : http://forums.etree.org : http://wiki.etree.org : Legal : RSS Feed

Contents designed & maintained by the etree.org volunteers
1998-2014, etree.org, except where noted. All Rights Reserved.
Read our terms of service and privacy guidelines