bt.etree.org
etree.org Community Bittorrent Tracker
ArtistPhish
Showph1993-02-20.97947.flac16
Report this as
non-Trade-Friendly
Email us
Torrentph1993-02-20.97947.flac16.torrent (click to download)
Downloads asph1993-02-20.97947.flac16
Info hashb5cde7c24a4a5876540599ec42f66cb02b2bd509
db linkhttp://db.etree.org/shn/97947 | Show | Source
DescriptionPhish
Saturday, February 20th, 1993
Roxy Theatre
Atlanta, GA

cd1 - set 1
1) Golgi Apparatus
2) Foam
3) The Sloth
4) Possum >
5) Weigh
6) All Things Reconsidered
7) The Divided Sky
8) The Horse >
9) Silent In The Morning
10) Fluffhead
11) Cavern

cd2 - set 2
1) Wilson >
2) Reba
3) Tweezer->
4) Walk Away->
5) Tweezer >
6) Glide >
7) Mike's Song->
8) My Mind's Got A Mind Of Its Own->
9) Mike's Song >
10) The Vibration Of Life->
11) Kung->
12) I Am Hydrogen >
13) Weekapaug Groove->
14) Have Mercy->
15) Weekapaug Groove->
16) Rock And Roll All Nite Jam->
17) Weekapaug Groove

cd3
1) Fast Enough For You >
2) Big Ball Jam >
3) HYHU >
4) Terrapin >
5) HYHU->
6) Harry Hood
7) Tweezer Reprise
8) e: Sleeping Monkey

- This long version of Wilson included a Simpsons Signal and, towards the end, a freakish jam that included an Iron Man tease from Mike.
- Reba included a tease of the theme from Woody Woodpecker.
- Tweezer had a Low Rider jam and a "Straight From the Sewer" rap.
- Glide included Tweezer teases.
- Mike's Song featured minor lyric changes, three different Tweezer teases, two different Wilson teases, and other teases of Reba, Lizards, and Stash.
- Mike teased the Esther "circus" theme in Hydrogen.
- The Rock and Roll All Nite jam was for a fan dressed as Kiss' Gene Simmons, who the band brought on stage to sing the song's chorus.
- Terrapin featured band intros and lots of chatter from Fish, prompting a hurry-up HYHU tease from Page.

-------------------------------

This is a matrix, done by hansokolow in ProTools, of the following sources:

SBD: shnid=1383

Source: SBD > ? > Trade from Craig Davis (craigdavis1@email.msn.com) > EAC > SHN
EAC: Eric Stoick (eric@stoick.com)
Seeded to: dylan.etree.org
Date Seeded: 08.31.2000

-------------------------------

AUD: shnid=89390

AKG 451 > Sony D3 (@ 48 kHz)
(recorded at soundboard)

transfer:
Tascam DA-20MKII > Tascam HD-P2 > CF card > usb 2.0 > pc > WaveLab 5.01b (de-emphasis, fades, resample to 44.1 kHz) > CD Wave v1.96.1 > FLAC v1.2.1 (Level 8)

FLAC tags added with metaflac v1.2.1

recorded by Mike Stoll (?)
transferred by Jason Sobel (jasonsobel@gmail.com)
seeded January 6, 2008

-------------------------------

hansokolow's notes: The SBD source definitely has an analog generation in it, as it had to be slowed down slightly. Probably only one generation, though, as it was very tight after shrinkage. Lots of clicks at track breaks and some digifuzz, as well as a couple of short missing sections from the SBD. Most of these are fixed.
Checksums length expanded size cdr WAVE problems fmt ratio filename
5:32.12 58593068 B --- -- ---xx ph1993-02-20d1t01.flac
8:51.21 93717836 B --- -- ---xx ph1993-02-20d1t02.flac
3:42.02 39165548 B --- -- ---xx ph1993-02-20d1t03.flac
10:21.07 109560908 B --- -- ---xx ph1993-02-20d1t04.flac
5:04.18 53667980 B --- -- ---xx ph1993-02-20d1t05.flac
2:48.08 29654060 B --- -- ---xx ph1993-02-20d1t06.flac
13:37.65 144271724 B --- -- ---xx ph1993-02-20d1t07.flac
1:37.66 17266076 B --- -- ---xx ph1993-02-20d1t08.flac
5:04.49 53740892 B --- -- ---xx ph1993-02-20d1t09.flac
14:20.53 151828700 B --- -- ---xx ph1993-02-20d1t10.flac
4:30.63 47776220 B --- -- ---xx ph1993-02-20d1t11.flac
7:13.33 76458860 B --- -- ---xx ph1993-02-20d2t01.flac
13:35.16 143803676 B --- -- ---xx ph1993-02-20d2t02.flac
5:28.60 58000364 B --- -- ---xx ph1993-02-20d2t03.flac
3:43.52 39459548 B --- -- ---xx ph1993-02-20d2t04.flac
1:45.44 18625532 B --- -- ---xx ph1993-02-20d2t05.flac
4:34.24 48390092 B --- -- ---xx ph1993-02-20d2t06.flac
8:02.69 85187132 B --- -- ---xx ph1993-02-20d2t07.flac
0:55.35 9784364 B --- -- ---xx ph1993-02-20d2t08.flac
1:00.30 10654604 B --- -- ---xx ph1993-02-20d2t09.flac
1:28.30 15593804 B --- -- ---xx ph1993-02-20d2t10.flac
1:37.42 17209628 B --- -- ---xx ph1993-02-20d2t11.flac
2:59.29 31643852 B --- -- ---xx ph1993-02-20d2t12.flac
2:59.40 31669724 B --- -- ---xx ph1993-02-20d2t13.flac
1:48.43 19152380 B --- -- ---xx ph1993-02-20d2t14.flac
1:04.68 11449580 B --- -- ---xx ph1993-02-20d2t15.flac
0:53.11 9375116 B --- -- ---xx ph1993-02-20d2t16.flac
1:25.65 15146924 B --- -- ---xx ph1993-02-20d2t17.flac
5:06.46 54086636 B --- -- ---xx ph1993-02-20d3t01.flac
2:44.05 28941404 B --- -- ---xx ph1993-02-20d3t02.flac
0:45.57 8072108 B --- -- ---xx ph1993-02-20d3t03.flac
11:02.07 116793308 B --- -- ---xx ph1993-02-20d3t04.flac
0:51.26 9057596 B --- -- ---xx ph1993-02-20d3t05.flac
13:09.01 139181996 B --- -- ---xx ph1993-02-20d3t06.flac
3:09.07 33356108 B --- -- ---xx ph1993-02-20d3t07.flac
6:25.71 68081036 B --- -- ---xx ph1993-02-20d3t08.flac
179:22.00 1898418384 B 0.5626 (36 files)
TypePhish
Last seederLast activity 21 days, 18:43:12 ago
Size1018.53 MB (1068009001 Bytes)
Added2013-02-20 08:23:47
Views0
Hits366
Snatched155 times
Upped by_________
Num files
[See full list]
39 files
Peers
[See full list]
0 seeders, 1 leecher = 1 peer total

Add a comment

gratefuldave78 2013-02-20 11:05:10
wow i was just thinking about this show! cool
chocobot 2013-02-20 14:38:26
thank you, i've been wanting to make a MTX of this show. classic.

Thanks again
LAStubbe 2013-02-20 23:58:07
The Reba is really good too !

Add a comment


http://etree.org : http://db.etree.org : http://forums.etree.org : http://wiki.etree.org : Legal : RSS Feed

Contents designed & maintained by the etree.org volunteers
1998-2014, etree.org, except where noted. All Rights Reserved.
Read our terms of service and privacy guidelines