bt.etree.org
etree.org Community Bittorrent Tracker
ArtistJimmy Herring Band
ShowThe Ringers Georgia Theatre Athens, Georgia 2/19/2013 (Schoeps CCM4V'S FOB)
Report this as
non-Trade-Friendly
Email us
Torrenttheringers2013-02-19.flac16.torrent (click to download)
Downloads astheringers2013-02-19.flac16
Info hashd3ae9165707b1cfb2c67aed9a352221a55da3a04
DescriptionThe Ringers
Georgia Theatre
Athens, Georgia
2/19/2013

Source: Schoeps CCM4V'S(din)>Lunatec V2>Benchmark AD2K>
Sound Devices 722 (24/48)
FOB/DFC/KFC/ZFC/AARP Clamped To Balcony Rail
DSP: Sound Devices 722>Sound Forge 9.0>CD Wave>flac(16)
Recorded By: Z-Man
Seeded By: Z-Man

Disc I

01 Tuning
02 Africa Jam
03 Pungee
04 Annick 2
05 Worried Life Blues
06 Foots
07 *The Ringer
08 Bass Solo >
09 Pymfao
10 Band Introductions

Disc II

01 Kaleidoscope
02 Mali
03 Peaceful Ride
04 Slopes
05 Band Introductions
06 Lord Of The Ringers
Encore:
07 Banter
08 Little Money Maker

* Wayne On Acoustic Guitar And Vocals

Jimmy Herring - Guitar
Wayne Krantz - Guitar, Acoustic Guitar, And Vocals
Michael Landau - Guitar And Vocals
Keith Carlock - Drums
Etienne Mbappe - Bass

Flac Fingerprint

ringers2013-02-19d01t01.flac:f64329ef37d34ce2e09a2c83a12a400f
ringers2013-02-19d01t02.flac:4464a93ca544a2d4eb49570e619e15e3
ringers2013-02-19d01t03.flac:adf0e6c237ef611f61ae8251761668bd
ringers2013-02-19d01t04.flac:02d0d0fe33e02fde6976fd656de9fada
ringers2013-02-19d01t05.flac:05ceae571b12fbc4136a3ab0fa35ac8a
ringers2013-02-19d01t06.flac:7db61691084b9ed95eb315eebf7c4d9f
ringers2013-02-19d01t07.flac:d253e3a3fce097669d58395ffe329b71
ringers2013-02-19d01t08.flac:3087ac6f16d231e60e0b9ebc825c462e
ringers2013-02-19d01t09.flac:b7c174392a9087459c3843d59942244b
ringers2013-02-19d01t10.flac:0aea5ba162ce67c0945f847b7604ff4b
ringers2013-02-19d02t01.flac:5e42cc6c03a9ec18e36b6b5eb0dac814
ringers2013-02-19d02t02.flac:149f66b66dc4fcb2e52634fa42f69ea8
ringers2013-02-19d02t03.flac:ebeada60fd15087e8680626a9a65d7ae
ringers2013-02-19d02t04.flac:c4b57ee2590b608d91915a641defc26c
ringers2013-02-19d02t05.flac:22722796349bd01d5461bbd15bf56bc2
ringers2013-02-19d02t06.flac:84a8fc96017b84dcd2c3e8a518558e6b
ringers2013-02-19d02t07.flac:e57a6200103100c24a61f3486bcb6df4
ringers2013-02-19d02t08.flac:e30d8edf189254d7123aecc282cda8f8

Shntool

length expanded size cdr WAVE problems fmt ratio filename
0:32.54 5771852 B --- -- ---xx flac 0.3266 ringers2013-02-19d01t01.flac
12:55.51 136829996 B --- -- ---xx flac 0.5260 ringers2013-02-19d01t02.flac
11:35.27 122661548 B --- -- ---xx flac 0.5567 ringers2013-02-19d01t03.flac
11:20.56 120083756 B --- -- ---xx flac 0.5233 ringers2013-02-19d01t04.flac
10:24.45 110179484 B --- -- ---xx flac 0.5236 ringers2013-02-19d01t05.flac
9:00.48 95368940 B --- -- ---xx flac 0.5445 ringers2013-02-19d01t06.flac
6:58.20 73782284 B --- -- ---xx flac 0.5275 ringers2013-02-19d01t07.flac
3:03.40 32375324 B --- -- ---xx flac 0.3409 ringers2013-02-19d01t08.flac
13:18.05 140779004 B --- -- ---xx flac 0.5688 ringers2013-02-19d01t09.flac
0:43.06 7599356 B --- -- ---xx flac 0.4310 ringers2013-02-19d01t10.flac
8:14.43 87242780 B --- -- ---xx flac 0.5297 ringers2013-02-19d02t01.flac
10:27.07 110619308 B --- -- ---xx flac 0.4420 ringers2013-02-19d02t02.flac
11:57.26 126539996 B --- -- ---xx flac 0.5017 ringers2013-02-19d02t03.flac
13:03.09 138142412 B --- -- ---xx flac 0.5419 ringers2013-02-19d02t04.flac
1:17.32 13658108 B --- -- ---xx flac 0.3447 ringers2013-02-19d02t05.flac
11:52.72 125766188 B --- -- ---xx flac 0.5392 ringers2013-02-19d02t06.flac
1:01.67 10918028 B --- -- ---xx flac 0.3315 ringers2013-02-19d02t07.flac
7:23.01 78147596 B --- -- ---xx flac 0.5651 ringers2013-02-19d02t08.flac
145:10.09 1536465960 B 0.5218 (18 files)









Checksumsringers2013-02-19d01t01.flac:f64329ef37d34ce2e09a2c83a12a400f
ringers2013-02-19d01t02.flac:4464a93ca544a2d4eb49570e619e15e3
ringers2013-02-19d01t03.flac:adf0e6c237ef611f61ae8251761668bd
ringers2013-02-19d01t04.flac:02d0d0fe33e02fde6976fd656de9fada
ringers2013-02-19d01t05.flac:05ceae571b12fbc4136a3ab0fa35ac8a
ringers2013-02-19d01t06.flac:7db61691084b9ed95eb315eebf7c4d9f
ringers2013-02-19d01t07.flac:d253e3a3fce097669d58395ffe329b71
ringers2013-02-19d01t08.flac:3087ac6f16d231e60e0b9ebc825c462e
ringers2013-02-19d01t09.flac:b7c174392a9087459c3843d59942244b
ringers2013-02-19d01t10.flac:0aea5ba162ce67c0945f847b7604ff4b
ringers2013-02-19d02t01.flac:5e42cc6c03a9ec18e36b6b5eb0dac814
ringers2013-02-19d02t02.flac:149f66b66dc4fcb2e52634fa42f69ea8
ringers2013-02-19d02t03.flac:ebeada60fd15087e8680626a9a65d7ae
ringers2013-02-19d02t04.flac:c4b57ee2590b608d91915a641defc26c
ringers2013-02-19d02t05.flac:22722796349bd01d5461bbd15bf56bc2
ringers2013-02-19d02t06.flac:84a8fc96017b84dcd2c3e8a518558e6b
ringers2013-02-19d02t07.flac:e57a6200103100c24a61f3486bcb6df4
ringers2013-02-19d02t08.flac:e30d8edf189254d7123aecc282cda8f8
TypeJimmy Herring Band
Last seederLast activity 22:04 ago
Size764.53 MB (801669954 Bytes)
Added2013-02-20 10:07:27
Views0
Hits678
Snatched462 times
Upped byzmanatl
Num files
[See full list]
19 files
Peers
[See full list]
8 seeders, 0 leechers = 8 peers total

Add a comment

robo 2013-02-20 10:30:43
Solid work Z! Nice job on the stream last night as well. Really looking forward to taking in some more of this hot-hot band today.
kdognc 2013-02-20 10:33:15
Thank You Zman...i got home from work after your stream went down...was so hoping you would up this so i could listen to it at work...THANKS big time.
Cheers
Kelly
mmwarchives 2013-02-20 11:32:44
Wow...nice, Z!! Didn't even know about this band. These cats play BB Kings here in NYC this Friday. I'm trying to set something
up for that show right now with Wayne.

Downloading now, but what was the style of music?? I'm assuming jazz fusion/jam/world?? Is that fair to assess??

Cheers!!
robo 2013-02-20 12:12:25
Yes. Very jam/jazz/fusion. The rhythym section really holds it down with a pulsing, fusion-like groove, and the 3 guitarists deliver the goods throughout. Jimmy was clearly having a good time with these guys.

I think I saw Z-man post something to effect of "Jimmy just shredded this Boston Butt!" if that gives you any indication of the massive amounts of face melting going on.
zmanatl 2013-02-20 12:35:59
Yes Bill, Hard Drivin' Jazz Fusion. Also a great Blues tune thrown in. Even with 3 "gunslingers", they managed to not step on each others toes.

Late night was simple as we were parked right in front of Little Italy, 2 Slices of Pizza!

Enjoy Show #36 of 2013!
jredd 2013-02-20 12:36:39
I wasn't sure they would allow taping but was really hoping this would show up since I can't make any of the shows. Thanks!
Tom_of_Mule 2013-02-20 12:43:00
Thanks Z !
Tom

MLPeep 2013-02-20 14:46:54
WOW! Lineup, hall, and Z' taping -- all stellar!

Thanks ZMan!
brofan 2013-02-20 15:19:33
EXcellent! Going to see these guys in Raleigh tomorrow night.

Once again, THANK YOU Z-MAN!
microburst 2013-02-20 18:05:29
Herring posted to his twitter account earlier last week that audio and video are accepted and encouraged for this tour, fwiw
Recreational_Meat_Head 2013-02-20 19:29:17
Thanks Zman....was hoping all day @ work today that this would pop up soon :)
mike246 2013-02-21 03:01:14
Thanks Zman. Mike in CT here. Going to record the NYC show Friday night. Then Kimock,Bernie Worrel,Andy Hess on Saturday!
jazzgtrl4 2013-02-21 11:36:35
Thanks Z, hopefully they come out to Cali. this is killer stuff
timk 2013-02-22 01:56:21
Thanks! Looking forward to checking this out.
microburst 2013-02-23 06:52:59
This is truly next level music - I'll be posting the NYC show including soundcheck perhaps later today. Each player is a beast is in his own right, but together...wow
microburst 2013-02-24 12:08:59
Z, I think you got 'Lord Of The Ringers' and 'Little Money Maker' reversed. Not sure of the title of Lord Of The Ringers but your D2t06 is The Meters' tune for sure.
samgangee 2013-02-27 19:38:22
https://www.facebook.com/photo.php?fbid=4456013126573&set=pb.1476936987.-2207520000.1362011857&type=3&theater
microburst 2013-03-07 17:08:33
Fwiw, ^ stage setlists are often wrong...more often than not in my experience actually. Audibles happen in life other than in football. If you know little money maker and the meters' catalog you know this isn't it and that d2t06 is...not trying to argue just want to get it right.
3amAgain 2014-01-09 18:47:14
This is excellent THANK YOU

Add a comment


http://etree.org : http://db.etree.org : http://forums.etree.org : http://wiki.etree.org : Legal : RSS Feed

Contents designed & maintained by the etree.org volunteers
1998-2014, etree.org, except where noted. All Rights Reserved.
Read our terms of service and privacy guidelines