bt.etree.org
etree.org Community Bittorrent Tracker
ArtistOther
ShowEddie And The Public Speakers Georgia Theatre Athens, Georgia 2/19/2013 (Schoeps CCM4V'S FOB)
Report this as
non-Trade-Friendly
Email us
Torrenteddie2013-02-19.flac16.torrent (click to download)
Downloads aseddie2013-02-19.flac16
Info hash1b3e19bc1b7aeda75f9b265da5516da5ab3d3dd9
DescriptionEddie And The Public Speakers
Georgia Theatre
Athens, Georgia
2/19/2013

Source: Schoeps CCM4V'S(din)>Lunatec V2>Benchmark AD2K>
Sound Devices 722 (24/48)
FOB/DFC/KFC/ZFC/AARP Clamped To Balcony Rail
DSP: Sound Devices 722>Sound Forge 9.0>CD Wave>flac(16)
Recorded By: Z-Man
Seeded By: Z-Man

Disc I

01 Charlie Brown >
02 Help Me >
03 Toe Dip >
04 Drum Solo >
05 Toe Dip
06 Darlin >
07 The Intimidator
08 Father Time
09 Station Sometime
10 Tired Eyes

Flac Fingerprint

eddie2013-02-1901.flac:cb8776d2816375ce43009efcc51f06da
eddie2013-02-1902.flac:9f14cb0dd1112d643d9fbfd9b84218d8
eddie2013-02-1903.flac:9e23762f973ab0fedc6b295f2de71dbe
eddie2013-02-1904.flac:53d1c724e4e1001ce1c2aa82e72d4961
eddie2013-02-1905.flac:9925e578a18e76496bff9fe5cbf40b24
eddie2013-02-1906.flac:2afe4f2c90401f0b368c098859ddb64d
eddie2013-02-1907.flac:7782c7444bcade160fd386157c941417
eddie2013-02-1908.flac:92d3566ee6dd83d7a7ac4fc76d9768d8
eddie2013-02-1909.flac:f6ad8a939efad56ac86af919a79bae53
eddie2013-02-1910.flac:4ef14a269f968643968ae3a32439d78e

Shntool

length expanded size cdr WAVE problems fmt ratio filename
6:10.16 65305676 B --- -- ---xx flac 0.5458 eddie2013-02-1901.flac
5:48.46 61495436 B --- -- ---xx flac 0.5523 eddie2013-02-1902.flac
3:20.09 35301212 B --- -- ---xx flac 0.6107 eddie2013-02-1903.flac
1:56.10 20485964 B --- -- ---xx flac 0.5392 eddie2013-02-1904.flac
2:12.40 23378924 B --- -- ---xx flac 0.6049 eddie2013-02-1905.flac
5:24.67 57311228 B --- -- ---xx flac 0.5793 eddie2013-02-1906.flac
4:17.54 45461852 B --- -- ---xx flac 0.6051 eddie2013-02-1907.flac
7:50.74 83082092 B --- -- ---xx flac 0.5516 eddie2013-02-1908.flac
5:10.44 54787532 B --- -- ---xx flac 0.5450 eddie2013-02-1909.flac
6:41.16 70774076 B --- -- ---xx flac 0.5509 eddie2013-02-1910.flac
48:53.01 517383992 B 0.5639 (10 files)








Checksumseddie2013-02-1901.flac:cb8776d2816375ce43009efcc51f06da
eddie2013-02-1902.flac:9f14cb0dd1112d643d9fbfd9b84218d8
eddie2013-02-1903.flac:9e23762f973ab0fedc6b295f2de71dbe
eddie2013-02-1904.flac:53d1c724e4e1001ce1c2aa82e72d4961
eddie2013-02-1905.flac:9925e578a18e76496bff9fe5cbf40b24
eddie2013-02-1906.flac:2afe4f2c90401f0b368c098859ddb64d
eddie2013-02-1907.flac:7782c7444bcade160fd386157c941417
eddie2013-02-1908.flac:92d3566ee6dd83d7a7ac4fc76d9768d8
eddie2013-02-1909.flac:f6ad8a939efad56ac86af919a79bae53
eddie2013-02-1910.flac:4ef14a269f968643968ae3a32439d78e
TypeOther
Last seederLast activity 119 days, 17:20:34 ago
Size278.23 MB (291744512 Bytes)
Added2013-02-21 01:29:21
Views0
Hits141
Snatched14 times
Upped byzmanatl
Num files11 files
File List
[Hide list]
filenamesizemd5
eddie2013-02-1908.flac43.71 MBN/A
eddie2013-02-1910.flac37.18 MBN/A
eddie2013-02-1901.flac33.99 MBN/A
eddie2013-02-1902.flac32.39 MBN/A
eddie2013-02-1906.flac31.66 MBN/A
eddie2013-02-1909.flac28.47 MBN/A
eddie2013-02-1907.flac26.24 MBN/A
eddie2013-02-1903.flac20.56 MBN/A
eddie2013-02-1905.flac13.49 MBN/A
eddie2013-02-1904.flac10.53 MBN/A
eddie2013-02-19.textfile.txt2.1 kBN/A
Peers
[See full list]
1 seeder, 0 leechers = 1 peer total

Add a comment

obaaron 2013-02-21 20:19:01
Thanks Zman.....will you be upping the Jimmy show from 2/19 as well? Would like to play it this weekend at the memorial gathering for our friend Mike Ford this weekend in San Diego.

Add a comment


http://etree.org : http://db.etree.org : http://forums.etree.org : http://wiki.etree.org : Legal : RSS Feed

Contents designed & maintained by the etree.org volunteers
1998-2014, etree.org, except where noted. All Rights Reserved.
Read our terms of service and privacy guidelines