bt.etree.org
etree.org Community Bittorrent Tracker
ArtistGarcia
Showjg1983-11-29.jgb.aud.morrone-friend.123916.flac1644
Report this as
non-Trade-Friendly
Email us
Torrentjg1983-11-29.jgb.aud.morrone-friend.123916.flac1644.torrent (click to download)
Downloads asjg1983-11-29.jgb.aud.morrone-friend.123916.flac1644
Info hashd975aa36ebc9c924d33173d2e8d0bd7aa710cf66
db linkhttp://db.etree.org/shn/123916 | Show | Source
DescriptionJERRY GARCIA BAND
Veteran's Memorial Auditorium
Providence RI
11-29-1983

s1t01 Sugaree
s1t02 Catfish John
s1t03 Simple Twist of Fate
s1t04 Run for the Roses
s1t05 Rhapsody in Red

s2t01 Cats Under the Stars
s2t02 Mission in the Rain
s2t03 Love in the Afternoon
s2t04 The Way You Do the Things You Do
s2t05 Tangled Up in Blue

AUD: Nakamichi CM300/CP1 cardioids > Sony TC-D5M > TDK SA-X 90s,
set up in Orchestra Row N, taped by Joe Morrone & Tim Friend.

Transfer: MAC > Nakamichi CR-5A > Edirol FA-66 > Wavelab 2448 >
R8Brain > CD-Wave > TLH > FLAC 1644 tagged, Andrew F. Feb 2013

Note: ID-106116 patches cover tape-flips; crowd end of Simple
Twist 14:27 > Run Roses 0:04, and Tangled Up 0:00 > 0:18.

length expanded size cdr WAVE problems fmt ratio filename
15:56.71 168805436 B --- -- ---xx flac 0.6222 jgb1983-11-29s1t01.flac
11:04.20 117176684 B --- -- ---xx flac 0.6130 jgb1983-11-29s1t02.flac
14:32.52 153943148 B --- -- ---xx flac 0.5636 jgb1983-11-29s1t03.flac
5:06.59 54117212 B --- -- ---xx flac 0.6160 jgb1983-11-29s1t04.flac
9:56.33 105212060 B --- -- ---xx flac 0.6491 jgb1983-11-29s1t05.flac
9:30.48 100660940 B --- -- ---xx flac 0.6297 jgb1983-11-29s2t01.flac
11:06.73 117654140 B --- -- ---xx flac 0.6205 jgb1983-11-29s2t02.flac
10:05.64 106872572 B --- -- ---xx flac 0.6080 jgb1983-11-29s2t03.flac
8:21.62 88522268 B --- -- ---xx flac 0.6295 jgb1983-11-29s2t04.flac
14:08.41 149683676 B --- -- ---xx flac 0.6351 jgb1983-11-29s2t05.flac
109:50.73 1162648136 B 0.6171 (10 files)

No errors occured.
Checksums21fbe1d1847c8cdbf73449bc9686c4b0 *jgb1983-11-29s1t01.flac
744e8973ba10d047e4410f6d59c78533 *jgb1983-11-29s1t02.flac
e18a91521c3b490a19c45b84359214c1 *jgb1983-11-29s1t03.flac
8a7275f7547c16bcf8894937860130e9 *jgb1983-11-29s1t04.flac
285b344e495c997024a4e0328934a474 *jgb1983-11-29s1t05.flac
039d37993a9f31f8b2baa9c410a499ca *jgb1983-11-29s2t01.flac
6217c191cbbba8ee1f87fa5ed1c22e38 *jgb1983-11-29s2t02.flac
fd669c47019aafb18d3ebee2e2c1467b *jgb1983-11-29s2t03.flac
8ba42f41480d0a9263d9206314315760 *jgb1983-11-29s2t04.flac
723a2de08bd867fad980da8dd1dec102 *jgb1983-11-29s2t05.flac

jgb1983-11-29s1t01.flac:e099414d150da693b07e8aa6afcac811
jgb1983-11-29s1t02.flac:58c4eda39c2977dfe19f882981dcb234
jgb1983-11-29s1t03.flac:cea8294ded12a4fb8552e739bc0e1865
jgb1983-11-29s1t04.flac:d466b8daec260db72c5d5a4454ea5d1e
jgb1983-11-29s1t05.flac:7417db66895b7357a20f698f6295177e
jgb1983-11-29s2t01.flac:990a6a2e2581b8ac047eb1673c1b079e
jgb1983-11-29s2t02.flac:8216439e3f5c9135c8fd1882ca313328
jgb1983-11-29s2t03.flac:08aa362cc2e4a69e04aa4b7bad900240
jgb1983-11-29s2t04.flac:16f194505062a1f907c57ad6d8b98811
jgb1983-11-29s2t05.flac:bae6186b6a03bf78073a79c97e588d08
TypeGarcia
Last seederLast activity 8:19 ago
Size684.25 MB (717486334 Bytes)
Added2013-02-24 18:15:18
Views1
Hits634
Snatched247 times
Upped bynfagdtrfb
Num files15 files
File List
[Hide list]
filenamesizemd5
jgb1983-11-29.ffp580 BN/A
jgb1983-11-29.jpg66.5 kBN/A
jgb1983-11-29.m3u250 BN/A
jgb1983-11-29.md5590 BN/A
jgb1983-11-29.txt2.9 kBN/A
jgb1983-11-29s1t01.flac100.16 MBN/A
jgb1983-11-29s1t02.flac68.50 MBN/A
jgb1983-11-29s1t03.flac82.75 MBN/A
jgb1983-11-29s1t04.flac31.79 MBN/A
jgb1983-11-29s1t05.flac65.13 MBN/A
jgb1983-11-29s2t01.flac60.45 MBN/A
jgb1983-11-29s2t02.flac69.63 MBN/A
jgb1983-11-29s2t03.flac61.97 MBN/A
jgb1983-11-29s2t04.flac53.15 MBN/A
jgb1983-11-29s2t05.flac90.65 MBN/A
Peers
[See full list]
3 seeders, 0 leechers = 3 peers total

Add a comment

Devendraji 2013-02-25 00:16:41
Thanks very much for putting this up. The other shows I've heard from this run (esp. the Beacon Theater) find Jerry (or maybe we should say, Jerry's playing) in top form. Ironically, late '83 and into '84 were some of the depths of the persian thing for John and Jer.

Can anyone comment on the sound quality of this recording...?
sbish 2013-04-11 14:36:30
Sound quality is A-, I would say. Everything is clear, limited hiss. Only complaint is that Jerry's voice is a little low in level compared to the rest of the recording. Definitely nice listen.

Add a comment


http://etree.org : http://db.etree.org : http://forums.etree.org : http://wiki.etree.org : Legal : RSS Feed

Contents designed & maintained by the etree.org volunteers
1998-2014, etree.org, except where noted. All Rights Reserved.
Read our terms of service and privacy guidelines