bt.etree.org
etree.org Community Bittorrent Tracker
ArtistFurthur
ShowFurthur 1st Bank Center Broomfield, Colorado 2/24/2013 (Schoeps CCM4V'S)
Report this as
non-Trade-Friendly
Email us
Torrentfurthur2013-02-24.flac16.torrent (click to download)
Downloads asfurthur2013-02-24.flac16
Info hashc6171363bf648b4e5bd4dcc795eb91890d797be6
DescriptionFurthur
1st Bank Center
Broomfield, Colorado
2/24/2013

Source: Schoeps CCM4V'S(din)>Lunatec V2>Benchmark AD2K>
Sound Devices 722 (24/48)
OTS/DRFC/KFC/ZFC/AARP 90' From Stage, 8' High
DSP: Sound Devices 722>Sound Forge 9.0>CD Wave>flac(16)
Recorded By: Z-Man
Seeded By: Z-Man

Disc I 1st Set

01 Tuning
02 Truckin' >
03 The Wheel >
04 Samson And Delilah
05 Brown-eyed Women
06 Lazy River Road >
07 Throwin' Stones >
08 Big Railroad Blues

Disc II 2nd Set

01 Tuning
02 Lost Sailor >
03 St. Of Circumstance
04 *Cumberland Blues
05 Dark Star >

Disc III 2nd Set Con't

01 Unbroken Chain >
02 *Days Between >
03 Eyes Of The World >
04 Sugar Magnolia
Encore:
05 Phil Donor rap
06 Brokedown Palace

* With Jason Crosby On Fiddle
# With Jason Crosby On Organ

Flac Fingerprint

furthur2013-02-24d01t01.flac:3d5b0be73a7457f363893f08b95de7a4
furthur2013-02-24d01t02.flac:f01a43921dbc906b816864e03b224a52
furthur2013-02-24d01t03.flac:2ad95bba344e881997f7417606d44aa8
furthur2013-02-24d01t04.flac:be690f3c53ab2bcbdb841a60f98bfec4
furthur2013-02-24d01t05.flac:03824497d8a1d45a6936c4a439a6429f
furthur2013-02-24d01t06.flac:d6bad9fd66884ddfc457234cfaa778ef
furthur2013-02-24d01t07.flac:0e23fe7cc5f60b9a63c89b39011c4107
furthur2013-02-24d01t08.flac:27bce55a82602823f9db3af86474de22
furthur2013-02-24d02t01.flac:a9b6038519da8cea7f87c8d2205496be
furthur2013-02-24d02t02.flac:b9d3685a0490e722a863a3504cbdb817
furthur2013-02-24d02t03.flac:4df1dfb5d83056db12d95e7e3c662e45
furthur2013-02-24d02t04.flac:92fb974d01b9febae3ed0ea17a7e88a5
furthur2013-02-24d02t05.flac:ab31ceb566e678bc515ec5192279b598
furthur2013-02-24d03t01.flac:c176d562efbc5ce268db00eb252edd8d
furthur2013-02-24d03t02.flac:a5d6af5afd5ded36912fdcac7fa9ab6e
furthur2013-02-24d03t03.flac:8511c9ee8c6b1b457e6cfb51d9cfe96d
furthur2013-02-24d03t04.flac:f92c1333b9c377f884a24c9999575a14
furthur2013-02-24d03t05.flac:085a0cc582bbe26eb2dfa2d5153cd253
furthur2013-02-24d03t06.flac:730a18c43489742833d41a3ff3c18c0a

Shntool

length expanded size cdr WAVE problems fmt ratio filename
0:52.52 9295148 B --- -- ---xx flac 0.3687 furthur2013-02-24d01t01.flac
11:23.13 120511820 B --- -- ---xx flac 0.4787 furthur2013-02-24d01t02.flac
10:45.50 113895644 B --- -- ---xx flac 0.4944 furthur2013-02-24d01t03.flac
6:59.60 74052764 B --- -- ---xx flac 0.4979 furthur2013-02-24d01t04.flac
6:32.40 69242924 B --- -- ---xx flac 0.5053 furthur2013-02-24d01t05.flac
7:17.16 77124476 B --- -- ---xx flac 0.4633 furthur2013-02-24d01t06.flac
10:40.11 112921916 B --- -- ---xx flac 0.4944 furthur2013-02-24d01t07.flac
5:16.44 55845932 B --- -- ---xx flac 0.5232 furthur2013-02-24d01t08.flac
0:38.23 6757340 B --- -- ---xx flac 0.3444 furthur2013-02-24d02t01.flac
8:34.50 90787244 B --- -- ---xx flac 0.4380 furthur2013-02-24d02t02.flac
9:37.26 101843996 B --- -- ---xx flac 0.4757 furthur2013-02-24d02t03.flac
11:50.46 125352236 B --- -- ---xx flac 0.4877 furthur2013-02-24d02t04.flac
22:17.52 235969148 B --- -- ---xx flac 0.4232 furthur2013-02-24d02t05.flac
17:23.62 184131068 B --- -- ---xx flac 0.4744 furthur2013-02-24d03t01.flac
13:06.11 138676316 B --- -- ---xx flac 0.4177 furthur2013-02-24d03t02.flac
11:56.16 126340076 B --- -- ---xx flac 0.4856 furthur2013-02-24d03t03.flac
8:04.47 85488188 B --- -- ---xx flac 0.5331 furthur2013-02-24d03t04.flac
2:03.41 21793676 B --- -- ---xx flac 0.3933 furthur2013-02-24d03t05.flac
6:46.60 71759564 B --- -- ---xx flac 0.4223 furthur2013-02-24d03t06.flac
172:07.45 1821789476 B 0.4680 (19 files)


















Checksumsfurthur2013-02-24d01t01.flac:3d5b0be73a7457f363893f08b95de7a4
furthur2013-02-24d01t02.flac:f01a43921dbc906b816864e03b224a52
furthur2013-02-24d01t03.flac:2ad95bba344e881997f7417606d44aa8
furthur2013-02-24d01t04.flac:be690f3c53ab2bcbdb841a60f98bfec4
furthur2013-02-24d01t05.flac:03824497d8a1d45a6936c4a439a6429f
furthur2013-02-24d01t06.flac:d6bad9fd66884ddfc457234cfaa778ef
furthur2013-02-24d01t07.flac:0e23fe7cc5f60b9a63c89b39011c4107
furthur2013-02-24d01t08.flac:27bce55a82602823f9db3af86474de22
furthur2013-02-24d02t01.flac:a9b6038519da8cea7f87c8d2205496be
furthur2013-02-24d02t02.flac:b9d3685a0490e722a863a3504cbdb817
furthur2013-02-24d02t03.flac:4df1dfb5d83056db12d95e7e3c662e45
furthur2013-02-24d02t04.flac:92fb974d01b9febae3ed0ea17a7e88a5
furthur2013-02-24d02t05.flac:ab31ceb566e678bc515ec5192279b598
furthur2013-02-24d03t01.flac:c176d562efbc5ce268db00eb252edd8d
furthur2013-02-24d03t02.flac:a5d6af5afd5ded36912fdcac7fa9ab6e
furthur2013-02-24d03t03.flac:8511c9ee8c6b1b457e6cfb51d9cfe96d
furthur2013-02-24d03t04.flac:f92c1333b9c377f884a24c9999575a14
furthur2013-02-24d03t05.flac:085a0cc582bbe26eb2dfa2d5153cd253
furthur2013-02-24d03t06.flac:730a18c43489742833d41a3ff3c18c0a
TypeFurthur
Last seederLast activity 20:27:49 ago
Size813.19 MB (852689205 Bytes)
Added2013-02-25 07:46:43
Views0
Hits829
Snatched565 times
Upped byzmanatl
Num files
[See full list]
20 files
Seeders
[Hide list]
0 Seeder(s)
Leechers
[Hide list]
0 Leecher(s)

Add a comment

danek 2013-02-25 09:45:26
Thank you so much ZMAN!! Sounds sweet! Any plans to do the Port Chester run?
bigdaddybflo 2013-02-25 10:07:46
GO Z GO ! Looks like the best nite of the run on paper.
Reelboy 2013-02-25 10:58:35
Thanks again!
TaperChuckM 2013-02-25 12:43:58
Thanks zman!
acesbacktoback 2013-02-25 15:53:47
thanks for this sweet sounding source Zman. jammed out to it earlier, incredible show. was up from thursday & passed out at the "days between" some point last night with TR's ustream and missed that unreal eyes > sugar mags/ssdd, stunning beautiful, soulful brokedown palace closer. best show of tour barnone. seeded it at BTL tracker here: http://bt.playinintheband.com/index.php?page=torrent-details&id=110ba0fca89411b78a84f5b7805e02fcafd89475 (tagged, checksums rehashed version) and streaming here: http://www.playinintheband.com/ dead top/front center player(swf)
detroitlightn 2013-02-25 17:15:57
thanks for the show! on to other important details - need to know what was on the food menu last night?
1478 2013-02-25 17:34:52
thanks
jerome70 2013-02-25 19:23:35
what a run! far out! thank you!
au516 2013-02-25 21:29:00
thanks Z Man for all you do, have downloaded but haven't listened to any yet. Driving to Dallas from Austin tomorrow and it will be Zman Further trip!
raygun 2013-02-26 01:43:49
Nice to finally meet up, thanks for everything!
Super Fun Week In Colorado, Thank You Furthur!
samiam12345 2013-02-26 20:48:28
Best pull from this night so far IMHO. Thanks Much.
rickyskaggs 2013-02-27 20:45:42
I knew you weren't man enough to go fohms.
ggreene 2013-02-27 22:26:57
Looks great... thx fer the show.... GG in OH

Add a comment


http://etree.org : http://db.etree.org : http://forums.etree.org : http://wiki.etree.org : Legal : RSS Feed

Contents designed & maintained by the etree.org volunteers
1998-2014, etree.org, except where noted. All Rights Reserved.
Read our terms of service and privacy guidelines