bt.etree.org
etree.org Community Bittorrent Tracker
ArtistOther
ShowPorch Bottom Boys Steve's Live Music Sandy Springs, Georgia 2/26/2013 (Schoeps CCM4V'S FOB)
Report this as
non-Trade-Friendly
Email us
Torrentpeach2013-02-26.flac16.torrent (click to download)
Downloads aspeach2013-02-26.flac16
Info hashce1eaa0b212c5fed95b98cd6cb274e1cb38aa68c
DescriptionPorch Bottom Boys
Steve's Live Music
Sandy Springs, Georgia
2/26/2013

Source: Schoeps CCM4V'S(din)>Lunatec V2>Benchmark AD2K>
Sound Devices 722 (24/48)
FOB/DFC/KFC/ZFC/AARP 6' From Stage, 6' High
DSP: Sound Devices 722>Sound Forge 9.0>CD Wave>flac(16)
Recorded By: Z-Man
Seeded By: Z-Man

Disc I 1st Set

01 Tuning
02 Fox On The Run
03 Little Sadie
04 White House Blues
05 Lay Me A Pallet
06 Debbie's Pride
07 Worried Man
08 Ice Storm Of Atlanta
09 Roll On Buddy
10 Colleen Malone
11 Death Of Steven Decatur
12 Jambalaya
13 Brook Road
14 Happy Birthday Suzie
15 Red Georgia Clay
16 John Hardy
17 White Dove
18 Folsom Prison Blues
19 Columbus Stockade Blues
20 Goin' Back To Ol' Kentucky

Disc II 2nd Set

01 Dennis Banter
02 Whippin' Post
03 Two Dollar Bill
04 Ghost Riders In The Sky
05 Love Me Darlin'
06 Banter/Band Intros
07 Big River
08 Old Home Place
09 Moscow Nights
10 Fallin'
11 Eat My Dust
12 James Forten At Sea
13 Goin' Down The Road Feelin' Bad
14 ixteen Tons
15 Back To The Country
16 New River Train
17 Band Introductions
18 When My Time Comes To Go


Denis Gainty - Mandolin And Vocals
Steve Gorbatkin - Guitar, Harmonica, And Vocals
Jim Thompson - Fiddle, Guitar, And Vocals
Todd Prusin - Bass
Charlie O'Neil - Banjo

Flac Fingerprint

peach2013-02-26d01t01.flac:11c3b7ef9e6251a06502ea06c40797ff
peach2013-02-26d01t02.flac:77ab8ad596c618cf875d3bc19caebc43
peach2013-02-26d01t03.flac:be6ee15f7d51affd20e0e323dbebdb1e
peach2013-02-26d01t04.flac:698fa75aaacd44c12f6190d9b342c3b9
peach2013-02-26d01t05.flac:cb33312a4b063333740c74527d2bcc08
peach2013-02-26d01t06.flac:0953d3c828a1949e9f45ae1522c3ab30
peach2013-02-26d01t07.flac:100e5df13d602b4d3539cf83eb0369db
peach2013-02-26d01t08.flac:1a5e6d35caa876b88025e43a1b21b0e9
peach2013-02-26d01t09.flac:648545db722a00fbcbd56cac4a4db1a8
peach2013-02-26d01t10.flac:ab1a8707d252ff53c387d3e5332db183
peach2013-02-26d01t11.flac:8bd642f5ad3faa826a6c60e97b1dea45
peach2013-02-26d01t12.flac:1cb504ca17cb56e148154e8d94d7ef58
peach2013-02-26d01t13.flac:26ee9730597d728775c21fb16862a73f
peach2013-02-26d01t14.flac:106abf5ace4bf8e35ad0a633b03d5115
peach2013-02-26d01t15.flac:35d0c9462bb35ee71e2e254f76dcaa62
peach2013-02-26d01t16.flac:22f4f2ecafe1a76c491c78aef43ed175
peach2013-02-26d01t17.flac:093594bc4fa903d429b1aa342d7a1ec0
peach2013-02-26d01t18.flac:8ac83065f2fc1da6ca1b39651a5adb96
peach2013-02-26d01t19.flac:20a0482c6f84addb1dd5c953faf7b580
peach2013-02-26d01t20.flac:551a1be1415509499e467687ea62b736
peach2013-02-26d02t01.flac:2263b35f106a011dab7ddb7b1bba8ba2
peach2013-02-26d02t02.flac:d0867ef837877d378c1bbc437869ba99
peach2013-02-26d02t03.flac:b7149730723faeca14870760dd7de5b0
peach2013-02-26d02t04.flac:2bc28faf6bc8206c3022892c81c8f6a6
peach2013-02-26d02t05.flac:d2209f2c2b51d7430fe5c5d99448d2df
peach2013-02-26d02t06.flac:f440e8db87ad90940619d3c358d31841
peach2013-02-26d02t07.flac:fd825df2b7ee364c4b79fdfa25c25283
peach2013-02-26d02t08.flac:2f8814a43efe6c1fd592c60ea795e4f8
peach2013-02-26d02t09.flac:608680713771edc2cba3592d219c37a6
peach2013-02-26d02t10.flac:2b57c7ee846f0ce65dc921ac04a60a79
peach2013-02-26d02t11.flac:279207611d5f42086adb0b0687003cb2
peach2013-02-26d02t12.flac:4eef3b5a8fb528227cf660a95e92f7a3
peach2013-02-26d02t13.flac:b7ba68fa058ba7a755d04a294e94ce80
peach2013-02-26d02t14.flac:86bcaf56bbc3b6afdb9df4caffc39c98
peach2013-02-26d02t15.flac:4bae0bf8f90b3d8ecc8d17541253e213
peach2013-02-26d02t16.flac:2587951b76b3d8dbd9b0ed7ff06742fa
peach2013-02-26d02t17.flac:33919aa0af4385f0c6a8f6abfe6fa7f9
peach2013-02-26d02t18.flac:d2254278d2d44c2945a4de2e94f87e50

Shntool

length expanded size cdr WAVE problems fmt ratio filename
0:22.21 3930236 B --- -- ----- wav 1.0000 peach2013-02-26d01t01.wav
3:31.73 37392140 B --- -- ----- wav 1.0000 peach2013-02-26d01t02.wav
3:11.11 33718316 B --- -- ----- wav 1.0000 peach2013-02-26d01t03.wav
3:37.43 38379980 B --- -- ----- wav 1.0000 peach2013-02-26d01t04.wav
4:47.55 50756204 B --- -- ----- wav 1.0000 peach2013-02-26d01t05.wav
3:51.58 40884860 B --- -- ----- wav 1.0000 peach2013-02-26d01t06.wav
5:48.28 61453100 B --- -- ----- wav 1.0000 peach2013-02-26d01t07.wav
3:34.38 37839020 B --- -- ----- wav 1.0000 peach2013-02-26d01t08.wav
5:24.40 57247724 B --- -- ----- wav 1.0000 peach2013-02-26d01t09.wav
4:13.45 44735084 B --- -- ----- wav 1.0000 peach2013-02-26d01t10.wav
4:35.62 48655868 B --- -- ----- wav 1.0000 peach2013-02-26d01t11.wav
3:48.39 40310972 B --- -- ----- wav 1.0000 peach2013-02-26d01t12.wav
6:47.23 71848940 B --- -- ----- wav 1.0000 peach2013-02-26d01t13.wav
2:23.52 25347548 B --- -- ----- wav 1.0000 peach2013-02-26d01t14.wav
3:08.33 33240860 B --- -- ----- wav 1.0000 peach2013-02-26d01t15.wav
3:53.38 41190620 B --- -- ----- wav 1.0000 peach2013-02-26d01t16.wav
3:37.41 38375276 B --- -- ----- wav 1.0000 peach2013-02-26d01t17.wav
4:41.22 49620188 B --- -- ----- wav 1.0000 peach2013-02-26d01t18.wav
4:03.09 42886412 B --- -- ----- wav 1.0000 peach2013-02-26d01t19.wav
4:24.18 46612748 B -b- -- ----- wav 1.0000 peach2013-02-26d01t20.wav
0:48.43 8568380 B --- -- ----- wav 1.0000 peach2013-02-26d02t01.wav
6:22.54 67511852 B --- -- ----- wav 1.0000 peach2013-02-26d02t02.wav
4:00.14 42368972 B --- -- ----- wav 1.0000 peach2013-02-26d02t03.wav
4:51.43 51433580 B --- -- ----- wav 1.0000 peach2013-02-26d02t04.wav
2:55.42 30968828 B --- -- ----- wav 1.0000 peach2013-02-26d02t05.wav
0:56.54 10005452 B --- -- ----- wav 1.0000 peach2013-02-26d02t06.wav
3:06.14 32843372 B --- -- ----- wav 1.0000 peach2013-02-26d02t07.wav
4:24.29 46637852 B --- -- ----- wav 1.0000 peach2013-02-26d02t08.wav
4:00.07 42352508 B --- -- ----- wav 1.0000 peach2013-02-26d02t09.wav
3:55.10 41477564 B --- -- ----- wav 1.0000 peach2013-02-26d02t10.wav
5:50.48 61852940 B --- -- ----- wav 1.0000 peach2013-02-26d02t11.wav
4:58.36 52651916 B --- -- ----- wav 1.0000 peach2013-02-26d02t12.wav
4:23.07 46409708 B --- -- ----- wav 1.0000 peach2013-02-26d02t13.wav
5:00.09 52941212 B --- -- ----- wav 1.0000 peach2013-02-26d02t14.wav
5:48.65 61540124 B --- -- ----- wav 1.0000 peach2013-02-26d02t15.wav
4:02.61 42832316 B --- -- ----- wav 1.0000 peach2013-02-26d02t16.wav
0:45.66 8093276 B --- -- ----- wav 1.0000 peach2013-02-26d02t17.wav
4:25.70 46910108 B -b- -- ----- wav 1.0000 peach2013-02-26d02t18.wav
150:23.71 1591826056 B 1.0000 (38 files)




























Checksumspeach2013-02-26d01t01.flac:11c3b7ef9e6251a06502ea06c40797ff<br />
peach2013-02-26d01t02.flac:77ab8ad596c618cf875d3bc19caebc43<br />
peach2013-02-26d01t03.flac:be6ee15f7d51affd20e0e323dbebdb1e<br />
peach2013-02-26d01t04.flac:698fa75aaacd44c12f6190d9b342c3b9<br />
peach2013-02-26d01t05.flac:cb33312a4b063333740c74527d2bcc08<br />
peach2013-02-26d01t06.flac:0953d3c828a1949e9f45ae1522c3ab30<br />
peach2013-02-26d01t07.flac:100e5df13d602b4d3539cf83eb0369db<br />
peach2013-02-26d01t08.flac:1a5e6d35caa876b88025e43a1b21b0e9<br />
peach2013-02-26d01t09.flac:648545db722a00fbcbd56cac4a4db1a8<br />
peach2013-02-26d01t10.flac:ab1a8707d252ff53c387d3e5332db183<br />
peach2013-02-26d01t11.flac:8bd642f5ad3faa826a6c60e97b1dea45<br />
peach2013-02-26d01t12.flac:1cb504ca17cb56e148154e8d94d7ef58<br />
peach2013-02-26d01t13.flac:26ee9730597d728775c21fb16862a73f<br />
peach2013-02-26d01t14.flac:106abf5ace4bf8e35ad0a633b03d5115<br />
peach2013-02-26d01t15.flac:35d0c9462bb35ee71e2e254f76dcaa62<br />
peach2013-02-26d01t16.flac:22f4f2ecafe1a76c491c78aef43ed175<br />
peach2013-02-26d01t17.flac:093594bc4fa903d429b1aa342d7a1ec0<br />
peach2013-02-26d01t18.flac:8ac83065f2fc1da6ca1b39651a5adb96<br />
peach2013-02-26d01t19.flac:20a0482c6f84addb1dd5c953faf7b580<br />
peach2013-02-26d01t20.flac:551a1be1415509499e467687ea62b736<br />
peach2013-02-26d02t01.flac:2263b35f106a011dab7ddb7b1bba8ba2<br />
peach2013-02-26d02t02.flac:d0867ef837877d378c1bbc437869ba99<br />
peach2013-02-26d02t03.flac:b7149730723faeca14870760dd7de5b0<br />
peach2013-02-26d02t04.flac:2bc28faf6bc8206c3022892c81c8f6a6<br />
peach2013-02-26d02t05.flac:d2209f2c2b51d7430fe5c5d99448d2df<br />
peach2013-02-26d02t06.flac:f440e8db87ad90940619d3c358d31841<br />
peach2013-02-26d02t07.flac:fd825df2b7ee364c4b79fdfa25c25283<br />
peach2013-02-26d02t08.flac:2f8814a43efe6c1fd592c60ea795e4f8<br />
peach2013-02-26d02t09.flac:608680713771edc2cba3592d219c37a6<br />
peach2013-02-26d02t10.flac:2b57c7ee846f0ce65dc921ac04a60a79<br />
peach2013-02-26d02t11.flac:279207611d5f42086adb0b0687003cb2<br />
peach2013-02-26d02t12.flac:4eef3b5a8fb528227cf660a95e92f7a3<br />
peach2013-02-26d02t13.flac:b7ba68fa058ba7a755d04a294e94ce80<br />
peach2013-02-26d02t14.flac:86bcaf56bbc3b6afdb9df4caffc39c98<br />
peach2013-02-26d02t15.flac:4bae0bf8f90b3d8ecc8d17541253e213<br />
peach2013-02-26d02t16.flac:2587951b76b3d8dbd9b0ed7ff06742fa<br />
peach2013-02-26d02t17.flac:33919aa0af4385f0c6a8f6abfe6fa7f9<br />
peach2013-02-26d02t18.flac:d2254278d2d44c2945a4de2e94f87e50
TypeOther
Last seederLast activity 113 days, 08:14:28 ago
Size726.08 MB (761345915 Bytes)
Added2013-02-27 08:19:11
Views0
Hits152
Snatched39 times
Upped byzmanatl
Num files
[See full list]
39 files
Seeders
[Hide list]
0 Seeder(s)
Leechers
[Hide list]
0 Leecher(s)

Add a comment

patchworkquilt 2013-02-27 11:13:21
I really enjoyed listening to your stream of this show Z. These boys were in fine form. Americana in Georgia is Vibrant and Living and Thriving. Even if the crowd was sparse. I hope they know that a few of us folks were listening in cyberspace. It was well worth the hear...need to get these boys to Colorado! Thank you Z.

Add a comment


http://etree.org : http://db.etree.org : http://forums.etree.org : http://wiki.etree.org : Legal : RSS Feed

Contents designed & maintained by the etree.org volunteers
1998-2014, etree.org, except where noted. All Rights Reserved.
Read our terms of service and privacy guidelines