bt.etree.org
etree.org Community Bittorrent Tracker
ArtistPhish
Showph1998-07-10u89
Report this as
non-Trade-Friendly
Email us
Torrentph1998-07-10u89.torrent (click to download)
Downloads asph1998-07-10u89
Info hash14b4d7047c6798bf4cbea0791bd327d8608c910a
db linkhttp://db.etree.org/shn/123981 | Show | Source
DescriptionPhish - July 10, 1998
Zeleste - Barcelona, Spain

Recording Info:
Neumann U89i -> Sonosax SX-M2 -> Sony SBM-1 -> Dat (Tascam DA-P1/48k)

Transfer Info:
Dat (Sony R500) -> Tascam SS-R05 -> Samplitude Professional v11.2.1 -> FLAC
(2 Discs Audio / 1 DVD FLAC)

All Transfers and Mastering By Charlie Miller
charliemiller87@earthlink.net
February 27, 2013

Notes:
-- Disc change is seamless
-- Recorded by Mark Lutzker and Rich Schaeffer (Dan Estrin's mics)
-- Nuemerous sound problems at the show causing songs to be cut short
-- Divided Sky, Mike’s Song and Sparkle were aborted due to sound problems
-- The jam out of Halley's Comet included a First Tube tease
-- Weekapaug Groove included On Broadway teases

Set 1:
d1t01 - Tuning
d1t02 - Down With Disease
d1t03 - Dogs Stole Things
d1t04 - Divided Sky
d1t05 - Mike's Song

Set 2:
d1t06 - Halley's Comet ->
d1t07 - Roggae ->
d1t08 - Sparkle
d1t09 - Band Tells Jokes
d2t01 - Mike's Song ->
d2t02 - Simple ->
d2t03 - Weekapaug Groove
d2t04 - Sample In A Jar ->
d2t05 - Good Times Bad Times

Encore:
d2t06 - Brian And Robert
d2t07 - Taste


SHNTOOL OUTPUT:
length expanded size cdr WAVE problems fmt ratio filename
1:07.43 11919980 B --- -- ---xx flac 0.4274 ph1998-07-10d1t01.flac
10:09.62 107573468 B --- -- ---xx flac 0.5842 ph1998-07-10d1t02.flac
4:26.60 47063564 B --- -- ---xx flac 0.5581 ph1998-07-10d1t03.flac
5:01.10 53119964 B --- -- ---xx flac 0.5486 ph1998-07-10d1t04.flac
2:55.01 30872396 B --- -- ---xx flac 0.5457 ph1998-07-10d1t05.flac
18:20.39 194131772 B --- -- ---xx flac 0.5424 ph1998-07-10d1t06.flac
6:55.67 73363628 B --- -- ---xx flac 0.5828 ph1998-07-10d1t07.flac
3:00.37 31839068 B --- -- ---xx flac 0.5126 ph1998-07-10d1t08.flac
3:00.51 31871996 B --- -- ---xx flac 0.4633 ph1998-07-10d1t09.flac
10:07.09 107096012 B --- -- ---xx flac 0.5884 ph1998-07-10d2t01.flac
24:10.64 255930572 B --- -- ---xx flac 0.5434 ph1998-07-10d2t02.flac
10:52.07 115029308 B --- -- ---xx flac 0.5667 ph1998-07-10d2t03.flac
5:04.38 53715020 B --- -- ---xx flac 0.5953 ph1998-07-10d2t04.flac
11:28.08 121382060 B --- -- ---xx flac 0.5583 ph1998-07-10d2t05.flac
3:29.13 36898220 B --- -- ---xx flac 0.4414 ph1998-07-10d2t06.flac
8:53.23 94075340 B --- -- ---xx flac 0.5583 ph1998-07-10d2t07.flac
129:03.07 1365882368 B 0.5529 (16 files)
Checksumsph1998-07-10d1t01.flac:6ac65e1af142c8a322ef22bd9be50846<br />
ph1998-07-10d1t02.flac:e6d643f455c982adec0e82b2dfc53cb9<br />
ph1998-07-10d1t03.flac:dc49f5b38c25aef7c326cb251d41ea14<br />
ph1998-07-10d1t04.flac:3b73e83093bfc69136fd2c7c1dc9146e<br />
ph1998-07-10d1t05.flac:09a650fc301c56d3f226603d38321a87<br />
ph1998-07-10d1t06.flac:8576f0ba8ac0667e71e147e3c1fdb92b<br />
ph1998-07-10d1t07.flac:bf3406f011e25c65668205bcc446b4a5<br />
ph1998-07-10d1t08.flac:486e6a6f37a58962c802d54a49ed5080<br />
ph1998-07-10d1t09.flac:549d434da827f14de61750f3b8e2269c<br />
ph1998-07-10d2t01.flac:366d600c4ebaba1140855743430da2c3<br />
ph1998-07-10d2t02.flac:f74ffee76c619dec2dd8d9ec1a16ed18<br />
ph1998-07-10d2t03.flac:f06ee9d8802d7ecaf84b0d8892b4f321<br />
ph1998-07-10d2t04.flac:8117abd973dba97b19a55fe40680fc6d<br />
ph1998-07-10d2t05.flac:7cfe2c688eb4fb2a61ebc670390712be<br />
ph1998-07-10d2t06.flac:f0d86cbead50a19f23cceebecd4ebb8c<br />
ph1998-07-10d2t07.flac:7ee79bc0fafb817538a871fd97bf367c<br />
TypePhish
Last seederLast activity 15:20 ago
Size720.18 MB (755162024 Bytes)
Added2013-02-27 15:39:06
Views2
Hits511
Snatched301 times
Upped bycharlie miller
Num files
[See full list]
19 files
Seeders
[Hide list]
1 Seeder(s)
ip:portclient
version
ul
bytes
dl
bytes
ratiocompleteul
rate
dl
rate
time
connected
time
left
idle
76.23.188.xxx:41535 0 B 0 B N/A 100.00%
N/A N/A 6:45:37 N/A 15:20
0 of 1 firewalled (0%) 100.00%
N/AN/A
Leechers
[Hide list]
0 Leecher(s)

Add a comment

jmitchell 2013-02-27 15:46:41
thanks Charlie!
geewiz010 2013-02-27 16:27:51
Nice, thanks for this!
Mistercharlie 2013-02-27 16:56:54
Thanks, Charlie!!!

I love this show! some seriously sick 98 jamming.
chocobot 2013-02-27 17:13:03
Thank you
gctaper64 2013-02-27 18:12:01
thanks Charlie,i love phish too..in particular i need 9/22/99... I was there{battery died during set two.. 4 mic shoeps mix..great show..this one is awesome too...
colinw 2013-02-27 18:12:19
thank you, the last night of Euro 98! What a time.
ifthir 2013-02-27 18:33:56
Thanks for doing all these transfers Charlie, really appreciate it!
posterisdead? 2013-02-27 19:17:43
all right! this was the only show from '98 that i was missing :)

thanks for the many uploads...keep up the good work!
twatts 2013-02-27 19:23:02
Thanks!

Terry
metawhy 2013-02-27 19:45:31
thank you!!!

haley's jam is very different and neat
jasonsobel 2013-02-27 20:24:00
I just added this to the etree database:
http://db.etree.org/shn/123981

thanks!
nedstruzz 2013-02-27 21:42:00
What do you call someone who hangs out wth musicians?
nedstruzz 2013-02-27 21:42:24
A drummer!


Great show, and great banter from the band.
jek 2013-02-27 23:23:02
One of my favorite versions of Simple right here - possibly the longest version, too.
sprobeck 2013-02-28 17:14:54
TY
LiverLobes 2013-02-28 18:30:28
Thanks for sharing this. I haven't heard that fantastic 2nd set in ages.
kindmeow 2014-06-22 15:15:34
many thanks!

Add a comment


http://etree.org : http://db.etree.org : http://forums.etree.org : http://wiki.etree.org : Legal : RSS Feed

Contents designed & maintained by the etree.org volunteers
© 1998-2014, etree.org, except where noted. All Rights Reserved.
Read our terms of service and privacy guidelines