bt.etree.org
etree.org Community Bittorrent Tracker
ArtistOther
ShowBhojanic Jam Featuring Yonrico Scott, Ted Pecchio, Nick Johnson, And Guarav Malhotra Bhojanic Restaurant Decatur, Georgia 2/27/2013 (Schoeps CCM4V'S FOB)
Report this as
non-Trade-Friendly
Email us
Torrentbhojanic2013-02-27.flac16.torrent (click to download)
Downloads asbhojanic2013-02-27.flac16
Info hash236d19e45412a6bbfdaa213616b750138ac8bb8a
DescriptionBhojanic Jam
Bhojanic Restaurant
Decatur, Georgia
2/27/2013

Source: Schoeps CCM4V'S(din)>Lunatec V2>Benchmark AD2K>
Sound Devices 722 (24/48)
FOB/DFC/KFC/ZFC/AARP Stage Lip, 3 1/2' High
DSP: Sound Devices 722>Sound Forge 9.0>CD Wave>flac(16)
Recorded By: Z-Man
Seeded By: Z-Man

Disc I 1st Set

01 ?
02 ?
03 Band Introductions
04 Come Together
05 Mercy
06 Mr. Clean (With Yonrico Rap)

Disc II 2nd Set

01 *#?
02 *#?
03 Band Introductions/Enter Grant Green Jr.
04 #@There Was A Time
05 #@What's Goin' On
06 Jappy Birthday Guarav
07 ^?
08 ^Yonrico Raps For Col. Bruce
09 ^+The Blues Is Alright

* With Kofi Burbridge On Flute
# With Spencer Pope On Keyboards
@ With Grant Green Jr. On Guitar And Vocals
^ With Buzz On Keyboards
+ With Col. Bruce Hampton On Vocals

Yonrico Scott - DrumsAnd Vocals
Guarav Malhotra - Percussion
Nick Johnson - Guitar
Ted Pecchio - Bass

Flac Fingerprint

bhojanic2013-02-27d01t01.flac:46969e3bbfcc7ad0f72e30cb4086085c
bhojanic2013-02-27d01t02.flac:c6caf9c52556c2f140f097580f27f2dd
bhojanic2013-02-27d01t03.flac:cdbc9a946b91095892c189b28b44a124
bhojanic2013-02-27d01t04.flac:1d470466cedccc26d07a3b380160707b
bhojanic2013-02-27d01t05.flac:322e3d1c9fbf2bdefd641caa698487e1
bhojanic2013-02-27d01t06.flac:958146f577b177a9e508963205f1b216
bhojanic2013-02-27d02t01.flac:ea55b376407405aff6aea7b24855ba26
bhojanic2013-02-27d02t02.flac:287752b43876edf052ba22949225c3fd
bhojanic2013-02-27d02t03.flac:8ff845f1b5a05f4fbec96c70aa7554fb
bhojanic2013-02-27d02t04.flac:69dfd314dfa34526f1c2d334ab9261a4
bhojanic2013-02-27d02t05.flac:8ad2c9daf21806ae0c0cfefaf471fc33
bhojanic2013-02-27d02t06.flac:6bd91d64ac88988aa0fbbe7ef6a66e12
bhojanic2013-02-27d02t07.flac:750fafeeba7c2b71b0fbadcbda847277
bhojanic2013-02-27d02t08.flac:83957f3f95b1b6115284960f1951e0af
bhojanic2013-02-27d02t09.flac:7749e98c823048675ae6dfa4b8573094

Shntool

length expanded size cdr WAVE problems fmt ratio filename
10:23.70 110061884 B --- -- ---xx flac 0.5022 bhojanic2013-02-27d01t01.flac
7:22.26 78029996 B --- -- ---xx flac 0.4884 bhojanic2013-02-27d01t02.flac
1:25.47 15104588 B --- -- ---xx flac 0.2582 bhojanic2013-02-27d01t03.flac
7:31.06 79570556 B --- -- ---xx flac 0.4672 bhojanic2013-02-27d01t04.flac
8:27.17 89474828 B --- -- ---xx flac 0.4895 bhojanic2013-02-27d01t05.flac
11:22.02 120309548 B --- -- ---xx flac 0.4988 bhojanic2013-02-27d01t06.flac
13:44.08 145372460 B --- -- ---xx flac 0.5547 bhojanic2013-02-27d02t01.flac
13:47.68 146042780 B --- -- ---xx flac 0.5310 bhojanic2013-02-27d02t02.flac
3:13.19 34089932 B --- -- ---xx flac 0.2624 bhojanic2013-02-27d02t03.flac
10:42.51 113368796 B --- -- ---xx flac 0.5461 bhojanic2013-02-27d02t04.flac
17:09.63 181663820 B --- -- ---xx flac 0.5023 bhojanic2013-02-27d02t05.flac
1:30.00 15876044 B --- -- ---xx flac 0.2837 bhojanic2013-02-27d02t06.flac
9:02.18 95651180 B --- -- ---xx flac 0.5107 bhojanic2013-02-27d02t07.flac
3:32.63 37545020 B --- -- ---xx flac 0.3564 bhojanic2013-02-27d02t08.flac
6:34.03 69508700 B --- -- ---xx flac 0.5389 bhojanic2013-02-27d02t09.flac
125:49.11 1331670132 B 0.4977 (15 files)










Checksumsbhojanic2013-02-27d01t01.flac:46969e3bbfcc7ad0f72e30cb4086085c
bhojanic2013-02-27d01t02.flac:c6caf9c52556c2f140f097580f27f2dd
bhojanic2013-02-27d01t03.flac:cdbc9a946b91095892c189b28b44a124
bhojanic2013-02-27d01t04.flac:1d470466cedccc26d07a3b380160707b
bhojanic2013-02-27d01t05.flac:322e3d1c9fbf2bdefd641caa698487e1
bhojanic2013-02-27d01t06.flac:958146f577b177a9e508963205f1b216
bhojanic2013-02-27d02t01.flac:ea55b376407405aff6aea7b24855ba26
bhojanic2013-02-27d02t02.flac:287752b43876edf052ba22949225c3fd
bhojanic2013-02-27d02t03.flac:8ff845f1b5a05f4fbec96c70aa7554fb
bhojanic2013-02-27d02t04.flac:69dfd314dfa34526f1c2d334ab9261a4
bhojanic2013-02-27d02t05.flac:8ad2c9daf21806ae0c0cfefaf471fc33
bhojanic2013-02-27d02t06.flac:6bd91d64ac88988aa0fbbe7ef6a66e12
bhojanic2013-02-27d02t07.flac:750fafeeba7c2b71b0fbadcbda847277
bhojanic2013-02-27d02t08.flac:83957f3f95b1b6115284960f1951e0af
bhojanic2013-02-27d02t09.flac:7749e98c823048675ae6dfa4b8573094
TypeOther
Last seederLast activity 33:25 ago
Size632.06 MB (662761086 Bytes)
Added2013-02-28 01:54:15
Views0
Hits156
Snatched29 times
Upped byzmanatl
Num files
[See full list]
16 files
Seeders
[Hide list]
1 Seeder(s)
ip:portclient
version
ul
bytes
dl
bytes
ratiocompleteul
rate
dl
rate
time
connected
time
left
idle
107.3.161.xxx:51413 0 B 0 B N/A 100.00%
N/A N/A 1:33:26 N/A 33:25
0 of 1 firewalled (0%) 100.00%
N/AN/A
Leechers
[Hide list]
0 Leecher(s)

Add a comment

MLPeep 2013-02-28 07:16:18
Thanks, Z'! Great musicians getting together in the old neighborhood.
Always a pleasure to see you.
zmanatl 2013-02-28 14:26:18
A grat night of music as MLPeep stated! Going to Bhojanic, no matter who is on the bill, you are going to be entertained. The four piece of Yonrico Scott, Ted Pecchio, Nick Johnson, And Guarav Malhotra, is enough to ensure a solid night of music. Add Spencer Pope, Kofi Burbridge, Grant Green Jr., Col. Bruce Hampton, and Buzz, and that is just icing on the cake. Speaking of cake, we even got to enjoy some Birthday Cake as Guarav was celebrating his birthday!

Here are a few decent videos I shot right on top of the stage area. Not too bad considering the lighting was quite dim.

Come Together:
http://youtu.be/ddGbTCsMCAQ

The Blues Is All Right:
http://youtu.be/-LRzDUstlzs

Happy Birthday Guarav:
http://youtu.be/oti3Ky-NgfY

Jam With Kofi:
http://youtu.be/5AjfWhA77iA

Mercy:
http://youtu.be/ihiJlXieqPQ

Mr. Clean:
http://youtu.be/mHP5zX4W1To

There Was A Time:
http://youtu.be/ndccImT9yAg

What's Goin' On:
http://youtu.be/ZcB4T-e0e0E


Enjoy Show #43 of 2013!

Add a comment


http://etree.org : http://db.etree.org : http://forums.etree.org : http://wiki.etree.org : Legal : RSS Feed

Contents designed & maintained by the etree.org volunteers
1998-2014, etree.org, except where noted. All Rights Reserved.
Read our terms of service and privacy guidelines