bt.etree.org
etree.org Community Bittorrent Tracker
ArtistGovt Mule
ShowGov't Mule Interlocken Music Festival Arrington, Virginia 9/5/2013 (Schoeps CCM4V'S FOB)
Report this as
non-Trade-Friendly
Email us
Torrentgovtmule2013-09-05.flac16.torrent (click to download)
Downloads asgovtmule2013-09-05.flac16
Info hash6b1c22dbacd8c428b189cb8a383b860b019baeb1
db linkhttp://db.etree.org/shn/125643 | Show | Source
DescriptionGov't Mule
Interlocken Music Festival
Ridge Stage
Arrington, Virginia
9/5/2013

Source: Schoeps CCM4V'S(din)>Lunatec V2>Benchmark AD2K>
Sound Devices 722 (24/48)
FOB/DFC/KFC/ZFC/AARP 90' From Stage, 7' High
DSP: Sound Devices 722>Sound Forge 9.0>CD Wave>flac(16)
Recorded By: Z-Man
Seeded By: Z-Man

Disc I

01 Jam >
02 Steppin' Lightly >
03 World Boss >
04 Broke Down On The Brazos >
05 Tributary Jam
06 Captured
07 Banks Of The Deep End
08 Scared To Live >

Disc II

01 *Dear Prudence >
02 *Gold Dust Woman
03 *Whisper In Your Soul >
04 *Find The Cost Of Freedom >
05 *Southern Man >
06 Thorazine Shuffle >
07 Funny Little Tragedy >
08 Torazine Shuffle
09 Piano Solo >
10 #Soulshine

* With Grace Potter On Vocals
# With The Warren Haynes Band

govtmule2013-09-05d01t01.flac:610665dc8f76bd350bea77711b205e2b
govtmule2013-09-05d01t02.flac:edbabd0da45c708ef0ee39d58dd1bec2
govtmule2013-09-05d01t03.flac:94fd89feb02948f4cb657a6b7d7531a8
govtmule2013-09-05d01t04.flac:142576712bb52ef7863f919e7a15e097
govtmule2013-09-05d01t05.flac:3ff3224f2635dbcd47ce210538c2a0f3
govtmule2013-09-05d01t06.flac:7b43b608f333a2e4ae1eca8827c805af
govtmule2013-09-05d01t07.flac:2c1a5a45f4c9ebaab3529589c7447b35
govtmule2013-09-05d01t08.flac:ca46f5ab5c3af7074fdcfd308f43f368
govtmule2013-09-05d02t01.flac:ff88020876a549d4c7ffd30c2bd73206
govtmule2013-09-05d02t02.flac:46c19754c58fb832a3b2e4d2a43c32fe
govtmule2013-09-05d02t03.flac:95733b00784dd5105e833ba3b2f7e9b2
govtmule2013-09-05d02t04.flac:6fbd49a844ec7804b1912292abb73c2c
govtmule2013-09-05d02t05.flac:b56dbb063d51724eeba22eb75589cdc0
govtmule2013-09-05d02t06.flac:4701cc513bcd6da6429d3d79c6949a23
govtmule2013-09-05d02t07.flac:c15ee52b94769ec080f2cd04cf5b5739
govtmule2013-09-05d02t08.flac:38a8fa4e7df6060289b4aec83f2af0b2
govtmule2013-09-05d02t09.flac:7feb3d721772bfe98bb299a4077ced7f
govtmule2013-09-05d02t10.flac:ebee0d8d806b9c0200405592fc51734e

length expanded size cdr WAVE problems fmt ratio filename
2:08.51 22699196 B --- -- ---xx flac 0.4386 govtmule2013-09-05d01t01.flac
7:38.69 80953532 B --- -- ---xx flac 0.5027 govtmule2013-09-05d01t02.flac
5:14.30 55460204 B --- -- ---xx flac 0.4822 govtmule2013-09-05d01t03.flac
6:05.31 64458956 B --- -- ---xx flac 0.4406 govtmule2013-09-05d01t04.flac
2:12.23 23338940 B --- -- ---xx flac 0.5152 govtmule2013-09-05d01t05.flac
9:44.03 103024700 B --- -- ---xx flac 0.4341 govtmule2013-09-05d01t06.flac
7:29.12 79231868 B --- -- ---xx flac 0.4474 govtmule2013-09-05d01t07.flac
7:50.65 83060924 B --- -- ---xx flac 0.4297 govtmule2013-09-05d01t08.flac
9:10.12 97048268 B --- -- ---xx flac 0.4824 govtmule2013-09-05d02t01.flac
9:33.08 101096060 B --- -- ---xx flac 0.4226 govtmule2013-09-05d02t02.flac
6:30.21 68845436 B --- -- ---xx flac 0.4585 govtmule2013-09-05d02t03.flac
1:06.70 11807084 B --- -- ---xx flac 0.3621 govtmule2013-09-05d02t04.flac
8:34.25 90728444 B --- -- ---xx flac 0.4955 govtmule2013-09-05d02t05.flac
10:17.27 108902348 B --- -- ---xx flac 0.4429 govtmule2013-09-05d02t06.flac
4:21.58 46176860 B --- -- ---xx flac 0.5445 govtmule2013-09-05d02t07.flac
1:14.72 13222988 B --- -- ---xx flac 0.4888 govtmule2013-09-05d02t08.flac
1:12.25 12759644 B --- -- ---xx flac 0.3363 govtmule2013-09-05d02t09.flac
7:26.13 78705020 B --- -- ---xx flac 0.4695 govtmule2013-09-05d02t10.flac
107:51.15 1141520472 B 0.4600 (18 files)



Checksumsgovtmule2013-09-05d01t01.flac:610665dc8f76bd350bea77711b205e2b<br />
govtmule2013-09-05d01t02.flac:edbabd0da45c708ef0ee39d58dd1bec2<br />
govtmule2013-09-05d01t03.flac:94fd89feb02948f4cb657a6b7d7531a8<br />
govtmule2013-09-05d01t04.flac:142576712bb52ef7863f919e7a15e097<br />
govtmule2013-09-05d01t05.flac:3ff3224f2635dbcd47ce210538c2a0f3<br />
govtmule2013-09-05d01t06.flac:7b43b608f333a2e4ae1eca8827c805af<br />
govtmule2013-09-05d01t07.flac:2c1a5a45f4c9ebaab3529589c7447b35<br />
govtmule2013-09-05d01t08.flac:ca46f5ab5c3af7074fdcfd308f43f368<br />
govtmule2013-09-05d02t01.flac:ff88020876a549d4c7ffd30c2bd73206<br />
govtmule2013-09-05d02t02.flac:46c19754c58fb832a3b2e4d2a43c32fe<br />
govtmule2013-09-05d02t03.flac:95733b00784dd5105e833ba3b2f7e9b2<br />
govtmule2013-09-05d02t04.flac:6fbd49a844ec7804b1912292abb73c2c<br />
govtmule2013-09-05d02t05.flac:b56dbb063d51724eeba22eb75589cdc0<br />
govtmule2013-09-05d02t06.flac:4701cc513bcd6da6429d3d79c6949a23<br />
govtmule2013-09-05d02t07.flac:c15ee52b94769ec080f2cd04cf5b5739<br />
govtmule2013-09-05d02t08.flac:38a8fa4e7df6060289b4aec83f2af0b2<br />
govtmule2013-09-05d02t09.flac:7feb3d721772bfe98bb299a4077ced7f<br />
govtmule2013-09-05d02t10.flac:ebee0d8d806b9c0200405592fc51734e<br />
TypeGovt Mule
Last seederLast activity 6:44 ago
Size500.79 MB (525114652 Bytes)
Added2013-09-06 03:18:02
Views0
Hits1226
Snatched739 times
Upped byzmanatl
Num files
[See full list]
19 files
Peers
[See full list]
7 seeders, 0 leechers = 7 peers total

Add a comment

raimax 2013-09-06 03:34:41
thank you
coloartist 2013-09-06 03:53:40
Fine job
Tomahawk Kid 2013-09-06 04:05:54
Thank you very much!
Psychoarts2k9 2013-09-06 06:42:27
Thanks!
jtb3 2013-09-06 07:09:20
Thank you, Zman! According to mule.net, Tributary Jam is the missing title...
rockymtnryan 2013-09-06 08:38:47
Well done!
Tom_of_Mule 2013-09-06 09:53:44
Thanks Z !
Tom
africolaman 2013-09-06 10:21:10
Thank you!
mechabarger 2013-09-06 13:15:24
Thanks!!!
woff 2013-09-06 15:00:17
Thank you
msp_mule 2013-09-06 17:09:39
Thanks a lot.
lucaluigi 2013-09-07 05:29:02
thank you very much
Panicstream 2013-09-07 09:39:43
stream is up

http://www.panicstream.net/vault/lockn-festival-2013/
bandaloop06 2013-09-07 17:09:21
Thanks Z for all of your grate recordings and sharing them with us!
Peace be with you.
luvzrel 2013-09-08 10:01:33
Thank you!
Vallely 2013-09-09 13:21:58
Thank you!
MLPeep 2013-09-10 07:47:17
Thanks Z'! Sorry that I missed the party -- glad that you were there!
chico1610 2013-09-12 02:09:07
thanks!
bionaut 2013-09-29 20:37:34
Thank you!

Add a comment


http://etree.org : http://db.etree.org : http://forums.etree.org : http://wiki.etree.org : Legal : RSS Feed

Contents designed & maintained by the etree.org volunteers
1998-2014, etree.org, except where noted. All Rights Reserved.
Read our terms of service and privacy guidelines