bt.etree.org
etree.org Community Bittorrent Tracker
ArtistFurthur
ShowFurthur Interlocken Music Festival Arrington, Virginia 9/7/2013 (Schoeps CCM4V'S FOB)
Report this as
non-Trade-Friendly
Email us
Torrentfurthur2013-09-07.flac16.torrent (click to download)
Downloads asfurthur2013-09-07.flac16
Info hash5cc551563fa02f923ca2f703e5bf3308e61cb2d2
db linkhttp://db.etree.org/shn/127666 | Show | Source
DescriptionFurthur
Interlocken Music Festival
Ridge Stage
Arrington, Virginia
9/7/2013

Source: Schoeps CCM4V'S(din)>Lunatec V2>Benchmark AD2K>
Sound Devices 722 (24/48)
FOB/DFC/KFC/ZFC/AARP 46' From Stage, 7' High
DSP: Sound Devices 722>Sound Forge 9.0>CD Wave>flac(16)
Recorded By: Z-Man
Seeded By: Z-Man

Disc I

Workingman's Dead

01 Uncle John's Band
02 High Time
03 Dire Wolf
04 New Speedway Boogie >
05 Cumberland Blues >
06 Black Peter >
07 Easy Wind
08 *Casey Jones

Disc II

01 *Bertha >
02 *Jam >
03 *Truckin' >
04 *Other One >
05 *Viola Lee Blues >
06 *Scarlet Begonias >
07 *Fire On The Mountain

* With Trey Anastasio On Guitar And Vocals

furthur2013-09-07d01t01.flac:f438e554fe1c6f1fc477872e10d7310b
furthur2013-09-07d01t02.flac:f64e481fd9ef796ff1d5da5623e9f9c4
furthur2013-09-07d01t03.flac:19e5152db356eca87504906598654976
furthur2013-09-07d01t04.flac:89d1a8602b4352795e7f86a68a90860d
furthur2013-09-07d01t05.flac:136837b14a7169a464e0d4af06490a74
furthur2013-09-07d01t06.flac:a05cdc29be3739ea2e959c25304cbbf1
furthur2013-09-07d01t07.flac:f2d3e252ab9266c96e944469cb509cd7
furthur2013-09-07d01t08.flac:889d43d2a169e6195cb35a1ab8220bbd
furthur2013-09-07d02t01.flac:429325326a637c24263fb45af8c587ce
furthur2013-09-07d02t02.flac:507b634d9c23a947f1c87ea15276bb88
furthur2013-09-07d02t03.flac:a706c3382e3226afed15f907a6bad407
furthur2013-09-07d02t04.flac:3546dc48497aded943087d795ac34672
furthur2013-09-07d02t05.flac:1a060353f2fb3888ce465bc62163f8ea
furthur2013-09-07d02t06.flac:5e2ea6e3cb74ef5b379ac5f0a1939db4
furthur2013-09-07d02t07.flac:91b6df037a6102dead8ec3ef64a6b379

length expanded size cdr WAVE problems fmt ratio filename
15:04.56 159597356 B --- -- ---xx flac 0.4699 furthur2013-09-07d01t01.flac
8:32.21 90366236 B --- -- ---xx flac 0.4268 furthur2013-09-07d01t02.flac
5:11.73 55032140 B --- -- ---xx flac 0.4988 furthur2013-09-07d01t03.flac
9:12.04 97382252 B --- -- ---xx flac 0.4780 furthur2013-09-07d01t04.flac
10:01.51 106136396 B --- -- ---xx flac 0.4850 furthur2013-09-07d01t05.flac
14:51.67 157330028 B --- -- ---xx flac 0.4329 furthur2013-09-07d01t06.flac
6:17.49 66618092 B --- -- ---xx flac 0.4563 furthur2013-09-07d01t07.flac
7:12.06 76218956 B --- -- ---xx flac 0.4968 furthur2013-09-07d01t08.flac
7:18.34 77343212 B --- -- ---xx flac 0.5058 furthur2013-09-07d02t01.flac
2:58.25 31458044 B --- -- ---xx flac 0.4267 furthur2013-09-07d02t02.flac
11:35.02 122602748 B --- -- ---xx flac 0.4844 furthur2013-09-07d02t03.flac
17:35.13 186132620 B --- -- ---xx flac 0.4751 furthur2013-09-07d02t04.flac
12:21.46 130820636 B --- -- ---xx flac 0.5167 furthur2013-09-07d02t05.flac
11:08.18 117877580 B --- -- ---xx flac 0.4955 furthur2013-09-07d02t06.flac
9:18.25 98490044 B --- -- ---xx flac 0.4934 furthur2013-09-07d02t07.flac
148:39.40 1573406340 B 0.4769 (15 files)






















Checksumsfurthur2013-09-07d01t01.flac:f438e554fe1c6f1fc477872e10d7310b
furthur2013-09-07d01t02.flac:f64e481fd9ef796ff1d5da5623e9f9c4
furthur2013-09-07d01t03.flac:19e5152db356eca87504906598654976
furthur2013-09-07d01t04.flac:89d1a8602b4352795e7f86a68a90860d
furthur2013-09-07d01t05.flac:136837b14a7169a464e0d4af06490a74
furthur2013-09-07d01t06.flac:a05cdc29be3739ea2e959c25304cbbf1
furthur2013-09-07d01t07.flac:f2d3e252ab9266c96e944469cb509cd7
furthur2013-09-07d01t08.flac:889d43d2a169e6195cb35a1ab8220bbd
furthur2013-09-07d02t01.flac:429325326a637c24263fb45af8c587ce
furthur2013-09-07d02t02.flac:507b634d9c23a947f1c87ea15276bb88
furthur2013-09-07d02t03.flac:a706c3382e3226afed15f907a6bad407
furthur2013-09-07d02t04.flac:3546dc48497aded943087d795ac34672
furthur2013-09-07d02t05.flac:1a060353f2fb3888ce465bc62163f8ea
furthur2013-09-07d02t06.flac:5e2ea6e3cb74ef5b379ac5f0a1939db4
furthur2013-09-07d02t07.flac:91b6df037a6102dead8ec3ef64a6b379
TypeFurthur
Last seederLast activity 50:48 ago
Size715.62 MB (750383118 Bytes)
Added2013-09-08 11:07:49
Views0
Hits4274
Snatched2231 times
Upped byzmanatl
Num files
[See full list]
16 files
Peers
[See full list]
12 seeders, 0 leechers = 12 peers total

Add a comment

<< Prev      Next >>
1 - 20 | 21 - 35

causey24 2013-09-08 15:59:19
CHEESY WESTERNS BABY!!!
terrapin8998 2013-09-08 18:27:45
thank you!
sumodie 2013-09-08 20:39:21
thank you ;0>
romasb 2013-09-09 01:08:06
Thanks!
Digam11 2013-09-09 07:18:51
Thanks
sprobeck 2013-09-09 12:29:23
thanks a lot
colinw 2013-09-09 12:43:08
thanks for this!
Vallely 2013-09-09 13:15:46
Thank you!
samiam12345 2013-09-09 13:34:52
hmmm. no encore? no donor rap?
harrylarry 2013-09-09 23:10:17
Nope. 2nd of 3 nights. Gotta give'm a break.
WRLOX 2013-09-10 17:23:29
thanks Z-Man !!!!
Blues_Ken 2013-09-14 11:52:09
Thank you Z-Man
luvzrel 2013-10-10 19:40:31
Thank you!
Davy777 2013-10-19 13:52:47
awesoome. thanks!
BostonDeadHead1977 2013-10-27 10:36:52
This and the Red Rocks run and both greek runs where very good shows. This summer/fall tour has been outstanding. We got some real good gems this year!

1 - 20 | 21 - 35
<< Prev      Next >>

Add a comment


http://etree.org : http://db.etree.org : http://forums.etree.org : http://wiki.etree.org : Legal : RSS Feed

Contents designed & maintained by the etree.org volunteers
1998-2014, etree.org, except where noted. All Rights Reserved.
Read our terms of service and privacy guidelines