bt.etree.org
etree.org Community Bittorrent Tracker
ArtistPhil Lesh & Friends
Showplf2014-05-29.gefell.pasternak.flac1644
Report this as
non-Trade-Friendly
Email us
Torrentplf2014-05-29.gefell.pasternak.flac1644.torrent (click to download)
Downloads asplf2014-05-29.gefell.pasternak.flac1644
Info hash2119de63fa5e09d0cc6929d1db447ca890d623c4
db linkhttp://db.etree.org/shn/129028 | Show | Source
DescriptionPHIL LESH & FRIENDS
Capitol Theater
Portchester NY
05-29-2014

Nels Cline (set two)
Ross James (set one)
John Kadlecik
Phil Lesh
Jordan Levine (set two)
John Medeski
Joe Russo
John Scofield

s1t01 crowd
s1t02 Golden Road
s1t03 Pride of Cucamonga
s1t04 Minglewood Blues
s1t05 Pride of Cucamonga
s1t06 Ramble on Rose
s1t07 California Skies
s1t08 Here Comes Sunshine
s1t09 Box of Rain

s2t01 intro jam
s2t02 China Cat Sunflower
s2t03 Mason's Children
s2t04 Dark Star
s2t05 Scarlet Begonias
s2t06 Saint Stephen
s2t07 Reuben & Cherise
s2t08 Space
s2t09 Dark Star
s2t10 Morning Dew
s2t11 Fire on the Mountain
s2t12 we love cody
s2t13 Liberty

Microtech Gefell M-210s > Oade M-248 > Sound Devices 722 > WAV 2448.
Mics on 7-foot stand in OTS next to SBD, recording by Jon Pasternak.
WAV 2448 > Wavelab > R8Brain > CD-Wave > TLH > FLAC 1644 tagged.

length expanded size cdr WAVE problems fmt ratio filename
1:53.63 20081420 B --- -- ---xx flac 0.4522 plf2014-05-29s1t01.flac
7:39.63 81115820 B --- -- ---xx flac 0.6025 plf2014-05-29s1t02.flac
4:32.25 48039644 B --- -- ---xx flac 0.5905 plf2014-05-29s1t03.flac
8:00.33 84749660 B --- -- ---xx flac 0.6250 plf2014-05-29s1t04.flac
3:19.59 35242412 B --- -- ---xx flac 0.5353 plf2014-05-29s1t05.flac
8:23.56 88860956 B --- -- ---xx flac 0.5598 plf2014-05-29s1t06.flac
6:35.19 69722732 B --- -- ---xx flac 0.5885 plf2014-05-29s1t07.flac
11:17.04 119432252 B --- -- ---xx flac 0.5727 plf2014-05-29s1t08.flac
9:21.13 98991020 B --- -- ---xx flac 0.6007 plf2014-05-29s1t09.flac
4:16.54 45285452 B --- -- ---xx flac 0.5200 plf2014-05-29s2t01.flac
8:05.26 85615196 B --- -- ---xx flac 0.5717 plf2014-05-29s2t02.flac
8:34.49 90784892 B --- -- ---xx flac 0.6043 plf2014-05-29s2t03.flac
10:16.39 108754172 B --- -- ---xx flac 0.5359 plf2014-05-29s2t04.flac
10:20.59 109506812 B --- -- ---xx flac 0.5820 plf2014-05-29s2t05.flac
13:23.62 141795068 B --- -- ---xx flac 0.5788 plf2014-05-29s2t06.flac
6:21.64 67358972 B --- -- ---xx flac 0.5707 plf2014-05-29s2t07.flac
8:25.12 89110268 B --- -- ---xx flac 0.4762 plf2014-05-29s2t08.flac
5:09.12 54535868 B --- -- ---xx flac 0.5223 plf2014-05-29s2t09.flac
14:06.53 149359100 B --- -- ---xx flac 0.5278 plf2014-05-29s2t10.flac
13:47.64 146033372 B --- -- ---xx flac 0.5484 plf2014-05-29s2t11.flac
2:56.16 31084076 B --- -- ---xx flac 0.4756 plf2014-05-29s2t12.flac
8:39.71 91718636 B --- -- ---xx flac 0.5661 plf2014-05-29s2t13.flac
175:28.16 1857177800 B 0.5617 (22 files)

No errors occured.
Checksumsc4031589a9768da3db2d5f04ed801f07 *plf2014-05-29s1t01.flac
3795e29a09508e0b67c9a60ff99d82ee *plf2014-05-29s1t02.flac
f4ea6952aa18171b77e657170c03ebd3 *plf2014-05-29s1t03.flac
8b3a04703906627e7c0427df56426e5a *plf2014-05-29s1t04.flac
ee1df50963e63df18db06a0da4f8e7c9 *plf2014-05-29s1t05.flac
1bee61f9bad89169bd41cab2a4e78580 *plf2014-05-29s1t06.flac
426edad897581a681aee7800df66d2fe *plf2014-05-29s1t07.flac
3bb8ea43153650476a43c743edff67b6 *plf2014-05-29s1t08.flac
8c5aad8946da795b85fec19b167c649a *plf2014-05-29s1t09.flac
8b12fea56ceb8b4e4d4d1557a63e0d1d *plf2014-05-29s2t01.flac
b1046c0431471adee7228bda3825ce35 *plf2014-05-29s2t02.flac
78832c47354c40267b954a14d94f4ebb *plf2014-05-29s2t03.flac
5da5e60b092e18d63d120793e9755fe8 *plf2014-05-29s2t04.flac
f8dc9ba3effaaa207f3277edeaa4fca8 *plf2014-05-29s2t05.flac
5a8e63afc8a69dd86c43bc2858a8b0cf *plf2014-05-29s2t06.flac
09fc8ebd9ce88041bb953116abcb3dc9 *plf2014-05-29s2t07.flac
8b638d62f84b57d0d63a4678b512a9e5 *plf2014-05-29s2t08.flac
69e3eb5d1de20d16546e1ce5f7e32312 *plf2014-05-29s2t09.flac
480669c7fd5f467ed020dc0d287f2333 *plf2014-05-29s2t10.flac
5efaf1dc2800bcea84679fcc7483bab0 *plf2014-05-29s2t11.flac
9d9f9c8967a434a2b899c0006f1e4a8e *plf2014-05-29s2t12.flac
e2f6582c81d7e9364df1bf9e553e7c49 *plf2014-05-29s2t13.flac

plf2014-05-29s1t01.flac:c940d9f6e757f93608dc35d328ffc472
plf2014-05-29s1t02.flac:5b8352586e53bd5aebae13c359b27e9f
plf2014-05-29s1t03.flac:387faff298e6995bc2d67c359804f759
plf2014-05-29s1t04.flac:41d528028fc7472a26376fdffdc8bf96
plf2014-05-29s1t05.flac:8718ab347506a62a0cd12f73cd2c96c7
plf2014-05-29s1t06.flac:52497a69126116fbedb7184643df1c9a
plf2014-05-29s1t07.flac:7445b07d02f76af93afeff76bf699efc
plf2014-05-29s1t08.flac:9310429197fe68160b070eb9d0b65145
plf2014-05-29s1t09.flac:2e9c06c845b98d0acb53f969b89b52c3
plf2014-05-29s2t01.flac:c44803d2879237b20ee559eb72794026
plf2014-05-29s2t02.flac:07bb28b67a64823fcae8c9e130926b93
plf2014-05-29s2t03.flac:8a963728577d88630893f3f7686bcba5
plf2014-05-29s2t04.flac:751d7ab02448572bd1bff5a1ef3f84fb
plf2014-05-29s2t05.flac:98770eb6e13e618329b7ac1268b86a5d
plf2014-05-29s2t06.flac:82983206c639f2d394759e8284d442e0
plf2014-05-29s2t07.flac:f895c6eae8c3e7be8a85c091137a6ea0
plf2014-05-29s2t08.flac:8f0b3ccaa8022bc16ead19744aea4929
plf2014-05-29s2t09.flac:25f355ab76834e1953a71fad7c99b175
plf2014-05-29s2t10.flac:b8b5e4501c2eeff637f9f6c80db41031
plf2014-05-29s2t11.flac:b386a75c3ac6768786b3288f30c3704f
plf2014-05-29s2t12.flac:efe5b06e2dc41463c2ddce17b70d44d7
plf2014-05-29s2t13.flac:c04527985492d3056e916a0c98c9e280
TypePhil Lesh & Friends
Last seederLast activity 2:38 ago
Size994.87 MB (1043199724 Bytes)
Added2014-05-30 15:32:47
Views3
Hits849
Snatched380 times
Upped bynfagdtrfb
Num files
[See full list]
25 files
Peers
[See full list]
9 seeders, 0 leechers = 9 peers total

Add a comment

WRLOX 2014-05-30 16:15:18
thanks for sharing !!
tommie01 2014-05-30 16:40:52
Thank you Jon. Amazing setlist - how does this man just keep getting better?
bjorn_larson 2014-05-30 17:20:25
Fun show last night. The first set was OK, but the second set is where things got rocking. These guys are really hitting their stride right now, and the Capitol Theatre is just fantastic. If you have the chance, make the effort to catch Phil and Friends -- you will not be disappointed.
Tom_of_Mule 2014-05-30 17:43:14
Thank you !
Tom
jazzcafe 2014-05-30 18:51:47
There were parts of this show that I really enjoyed last night, but overall, I think I'm just not getting it anymore. Thanks for Taping, I was too busy taping Cabinet at the bar.

Is there always so few tapers at Phil @ Cap this year? I only counted 4 tapers..last time I saw Phil it was close to 30 tapers at the Cap.
tapejunkie 2014-05-30 19:07:12
Thanks
bandaloop06 2014-05-30 22:35:00
Thanks for sharing!
sprobeck 2014-05-31 12:10:39
thanks a lot

Add a comment


http://etree.org : http://db.etree.org : http://forums.etree.org : http://wiki.etree.org : Legal : RSS Feed

Contents designed & maintained by the etree.org volunteers
1998-2014, etree.org, except where noted. All Rights Reserved.
Read our terms of service and privacy guidelines