bt.etree.org
etree.org Community Bittorrent Tracker
ArtistString Cheese Incident
ShowString Cheese And The Gang Lockn' Festival Arrington, Virginia 9/4/2014 (Schoeps CCM4V'S FOB)
Report this as
non-Trade-Friendly
Email us
Torrentsci&thegang2014-09-04.flac16.torrent (click to download)
Downloads assci&thegang2014-09-04.flac16
Info hash34afcc75e7375f883a7bb72bfe17b3d70429eb9f
DescriptionString Cheese And The Gang
With The Preservation Hall Jazz Band
Lockn' Festival
Arrington, Virginia
9/4/2014

Source: Schoeps CCM4V'S(din)>Lunatec V2>Benchmark AD2K>
Sound Devices 722 (24/48)
FOB/DFC/KFC/ZFC/AARP Approximately 74' From Stage, 7' High
DSP: Sound Devices 722>Sound Forge 10.0>CD Wave>flac(16)
ID3 Tagged In Foobar 2000
Recorded By: Z-Man
Seeded By: Z-Man

Disc I

01 Jungle Boogie
02 Hollywood Swingers
03 *Fresh
04 *Ladies Night
05 *Take My Heart
06 *Joanna
07 *Get Down On It
08 *Let's Go Dancin' (Ooh La La La)
09 *Celebration

* With J.T. Taylor Of Kool And The Gang On Vocals
# With Backup Singers

sc&thegang2014-09-04d01t01.flac:e1f31913536f25af6a61311d7b6ca1c7
sc&thegang2014-09-04d01t02.flac:627a6dcc787bbfd6e62798cf5c0e1186
sc&thegang2014-09-04d01t03.flac:1eae5c1e40e7f942fda1c2161d8fabbc
sc&thegang2014-09-04d01t04.flac:8faa1d88fbfdfb5aefbdbf86accdc7ca
sc&thegang2014-09-04d01t05.flac:a20e26b36010992f6a1c14bd822474af
sc&thegang2014-09-04d01t06.flac:a2b9b7844a8399374deba50be75c339b
sc&thegang2014-09-04d01t07.flac:4484be4fc5773729cb192ad5b12bb951
sc&thegang2014-09-04d01t08.flac:645806b3020573f268f7b09f2ce73d06
sc&thegang2014-09-04d01t09.flac:b8250ece80aeea748142c32742f817e6

length expanded size cdr WAVE problems fmt ratio filename
6:30.26 68857196 B --- -- ---xx flac 0.5278 sc&thegang2014-09-04d01t01.flac
7:00.36 74172716 B --- -- ---xx flac 0.4864 sc&thegang2014-09-04d01t02.flac
4:47.68 50786780 B --- -- ---xx flac 0.5180 sc&thegang2014-09-04d01t03.flac
6:24.31 67810556 B --- -- ---xx flac 0.5438 sc&thegang2014-09-04d01t04.flac
4:34.30 48404204 B --- -- ---xx flac 0.4531 sc&thegang2014-09-04d01t05.flac
3:39.69 38793932 B --- -- ---xx flac 0.4645 sc&thegang2014-09-04d01t06.flac
6:16.61 66469916 B --- -- ---xx flac 0.5569 sc&thegang2014-09-04d01t07.flac
9:19.62 98753468 B --- -- ---xx flac 0.5128 sc&thegang2014-09-04d01t08.flac
8:29.30 89858204 B --- -- ---xx flac 0.5161 sc&thegang2014-09-04d01t09.flac
57:03.38 603906972 B 0.5126 (9 files)







Checksumssc&amp;thegang2014-09-04d01t01.flac:e1f31913536f25af6a61311d7b6ca1c7<br />
sc&amp;thegang2014-09-04d01t02.flac:627a6dcc787bbfd6e62798cf5c0e1186<br />
sc&amp;thegang2014-09-04d01t03.flac:1eae5c1e40e7f942fda1c2161d8fabbc<br />
sc&amp;thegang2014-09-04d01t04.flac:8faa1d88fbfdfb5aefbdbf86accdc7ca<br />
sc&amp;thegang2014-09-04d01t05.flac:a20e26b36010992f6a1c14bd822474af<br />
sc&amp;thegang2014-09-04d01t06.flac:a2b9b7844a8399374deba50be75c339b<br />
sc&amp;thegang2014-09-04d01t07.flac:4484be4fc5773729cb192ad5b12bb951<br />
sc&amp;thegang2014-09-04d01t08.flac:645806b3020573f268f7b09f2ce73d06<br />
sc&amp;thegang2014-09-04d01t09.flac:b8250ece80aeea748142c32742f817e6
TypeString Cheese Incident
Last seederLast activity 12:36 ago
Size295.24 MB (309585839 Bytes)
Added2014-09-05 09:26:58
Views0
Hits1124
Snatched586 times
Upped byzmanatl
Num files
[See full list]
10 files
Peers
[See full list]
3 seeders, 0 leechers = 3 peers total

Add a comment

dylan75 2014-09-05 23:00:03
Looks like fun! Many thanks for sharing.
Psychoarts2k9 2014-09-06 06:44:17
Thanks Z I was looking for something different to listen to this morning.
Tom_of_Mule 2014-09-08 10:19:54
Thanks Z !
Tom
Blues_Ken 2014-09-08 18:01:29
Thank you Z-man. Can't wait to enjoy the festival all over again thanks to you and your fellow tapers.
letitgro 2014-10-10 06:21:42
Thanks for sharing this.

Add a comment


http://etree.org : http://db.etree.org : http://forums.etree.org : http://wiki.etree.org : Legal : RSS Feed

Contents designed & maintained by the etree.org volunteers
1998-2014, etree.org, except where noted. All Rights Reserved.
Read our terms of service and privacy guidelines