bt.etree.org
etree.org Community Bittorrent Tracker
ArtistTedeschi Trucks Band
ShowTedeschi Trucks Band Ryman Auditorium Nashville, Tennessee 3/3/2016 (Schoeps CCM4V'S FOB)
Report this as
non-Trade-Friendly
Email us
Torrentttb2016-03-03.flac16.torrent (click to download)
Downloads asttb2016-03-03.flac16
Info hash5cb41f89702cbcb6ffb8e16bceccf99bbb29e1d0
DescriptionTedeschi Trucks Band
Ryman Auditorium
Nashville, Tennessee
3/3/2016

Source: Schoeps CCM4V's>Lunatec V2>Benchmark AD2K>
Sound Devices 722 (24/44)
FOB/DRFC/KFC/ZFC/AARP Section 3, Row L, Between Seats 8 & 9, 6 1/2' High
DSP: Sound Devices 722>Sound Forge 10.0>CD Wave>flac(16)
ID3 Tagged In Foobar 2000
Recorded By: Z-Man
Seeded By: Z-Man

Disc I

01 Greeting
02 Don't Know What >
03 The Letter
04 Within You >
05 Just As Strange
06 Bird On A Wire
07 Sticks And Stones
08 Idle Wind >
09 Drum Solo >
10 Idle Wind
11 *99 And One Half
12 *In Every Heart
13 Made Up Mind

Disc II

01 Anyhow
02 I Pity The Fool
03 #I Want More
04 Let Me Get By
Encore:
05 Thanks
06 #Midnight In Harlem
07 It Ain't Easy

* With Steve Cropper On Guitar
# With Jack Pearson On Guitar

ttb2016-03-03d01t01.flac:01a08522ff8994488f43cacab459ed3f
ttb2016-03-03d01t02.flac:aab3490b95b0a77e3ccaf85850ec5b70
ttb2016-03-03d01t03.flac:2e70917a5dda3b24ec7fce59c0263919
ttb2016-03-03d01t04.flac:de1326bedb935a8c620d0344b2633e6b
ttb2016-03-03d01t05.flac:0e8771512eb684871e8b6d9e357ff430
ttb2016-03-03d01t06.flac:694ce9abcc32301867461cbb88abe82b
ttb2016-03-03d01t07.flac:38de9ca1a1fc69588f78d5394448931b
ttb2016-03-03d01t08.flac:44732d7248dceb5ed6c14ead128b12e6
ttb2016-03-03d01t09.flac:f0ae3c2a7ded3b83653399239841bb11
ttb2016-03-03d01t10.flac:a342daacabe5e4108b019f93dbc42c35
ttb2016-03-03d01t11.flac:6e7b2a88e5ee033389c12d4e468a19ad
ttb2016-03-03d01t12.flac:f23d1c033f1a86e462b8e2d2b4922773
ttb2016-03-03d01t13.flac:923fd8524fe9dde632e2c588a34bb519
ttb2016-03-03d02t01.flac:eacc7b5962423892feba9848da9e8bf2
ttb2016-03-03d02t02.flac:238421fa6fa8c0eb17ccd94236e87279
ttb2016-03-03d02t03.flac:fa2660d75977b48721d5e1e3d027bd28
ttb2016-03-03d02t04.flac:c959194c1242a14b12c1b7959041a870
ttb2016-03-03d02t05.flac:5aa1a82bc0d4bfcf30506362525dd22e
ttb2016-03-03d02t06.flac:535d72d4894a5c557b464bc0465b84d9
ttb2016-03-03d02t07.flac:0f230ed3e99e289010e26b6a617a07d2

length expanded size cdr WAVE problems fmt ratio filename
0:25.32 4485308 B --- -- ---xx flac 0.4428 ttb2016-03-03d01t01.flac
5:54.37 62532668 B --- -- ---xx flac 0.5804 ttb2016-03-03d01t02.flac
4:17.23 45388940 B --- -- ---xx flac 0.6145 ttb2016-03-03d01t03.flac
2:12.16 23322476 B --- -- ---xx flac 0.4427 ttb2016-03-03d01t04.flac
4:49.61 51123116 B --- -- ---xx flac 0.5714 ttb2016-03-03d01t05.flac
6:09.35 65173964 B --- -- ---xx flac 0.4688 ttb2016-03-03d01t06.flac
3:29.00 36867644 B --- -- ---xx flac 0.6229 ttb2016-03-03d01t07.flac
8:10.10 86459564 B --- -- ---xx flac 0.5539 ttb2016-03-03d01t08.flac
3:19.46 35211836 B --- -- ---xx flac 0.5535 ttb2016-03-03d01t09.flac
1:43.21 18218636 B --- -- ---xx flac 0.5254 ttb2016-03-03d01t10.flac
4:13.23 44683340 B --- -- ---xx flac 0.5767 ttb2016-03-03d01t11.flac
7:26.37 78761468 B --- -- ---xx flac 0.5643 ttb2016-03-03d01t12.flac
6:38.52 70329548 B --- -- ---xx flac 0.5894 ttb2016-03-03d01t13.flac
9:21.40 99054524 B --- -- ---xx flac 0.5335 ttb2016-03-03d02t01.flac
8:32.56 90448556 B --- -- ---xx flac 0.5120 ttb2016-03-03d02t02.flac
12:52.22 136232588 B --- -- ---xx flac 0.5623 ttb2016-03-03d02t03.flac
8:32.28 90382700 B --- -- ---xx flac 0.5668 ttb2016-03-03d02t04.flac
0:16.42 2921228 B --- -- ---xx flac 0.4249 ttb2016-03-03d02t05.flac
12:23.09 131086412 B --- -- ---xx flac 0.4790 ttb2016-03-03d02t06.flac
6:06.63 64710620 B --- -- ---xx flac 0.5449 ttb2016-03-03d02t07.flac
116:54.53 1237395136 B 0.5448 (20 files)


















Checksumsttb2016-03-03d01t01.flac:01a08522ff8994488f43cacab459ed3f
ttb2016-03-03d01t02.flac:aab3490b95b0a77e3ccaf85850ec5b70
ttb2016-03-03d01t03.flac:2e70917a5dda3b24ec7fce59c0263919
ttb2016-03-03d01t04.flac:de1326bedb935a8c620d0344b2633e6b
ttb2016-03-03d01t05.flac:0e8771512eb684871e8b6d9e357ff430
ttb2016-03-03d01t06.flac:694ce9abcc32301867461cbb88abe82b
ttb2016-03-03d01t07.flac:38de9ca1a1fc69588f78d5394448931b
ttb2016-03-03d01t08.flac:44732d7248dceb5ed6c14ead128b12e6
ttb2016-03-03d01t09.flac:f0ae3c2a7ded3b83653399239841bb11
ttb2016-03-03d01t10.flac:a342daacabe5e4108b019f93dbc42c35
ttb2016-03-03d01t11.flac:6e7b2a88e5ee033389c12d4e468a19ad
ttb2016-03-03d01t12.flac:f23d1c033f1a86e462b8e2d2b4922773
ttb2016-03-03d01t13.flac:923fd8524fe9dde632e2c588a34bb519
ttb2016-03-03d02t01.flac:eacc7b5962423892feba9848da9e8bf2
ttb2016-03-03d02t02.flac:238421fa6fa8c0eb17ccd94236e87279
ttb2016-03-03d02t03.flac:fa2660d75977b48721d5e1e3d027bd28
ttb2016-03-03d02t04.flac:c959194c1242a14b12c1b7959041a870
ttb2016-03-03d02t05.flac:5aa1a82bc0d4bfcf30506362525dd22e
ttb2016-03-03d02t06.flac:535d72d4894a5c557b464bc0465b84d9
ttb2016-03-03d02t07.flac:0f230ed3e99e289010e26b6a617a07d2
TypeTedeschi Trucks Band
Last seederLast activity 30:44 ago
Size642.89 MB (674123236 Bytes)
Added2016-03-04 02:43:43
Views0
Hits878
Snatched409 times
Upped byzmanatl
Num files
[See full list]
21 files
Peers
[See full list]
9 seeders, 0 leechers = 9 peers total

Add a comment

zmanatl 2016-03-04 02:50:30
This band is about as good as it gets out there. We had 2 special guests and they added a great deal!
RBayers 2016-03-04 07:11:43
thanks!
funk_lin 2016-03-04 07:31:48
Steve Cropper...wow.

Stax forever!
JBH69Flyer 2016-03-04 07:41:20
Thanks "z" for this show and your many others! Great efforts!
bigdaddybflo 2016-03-04 08:26:42
Go Z Go !! Very nice job you did. Your still my musical hero.
april81972 2016-03-04 09:21:18
Thanks for this.

Anyone know why they don't release sbd's of their shows? Seems like most of the bands of their caliber are doing so these days.
mdm 2016-03-04 10:03:53
Thank you my friend!
Tom_of_Mule 2016-03-04 10:11:43
Thanks Z !
Tom
einsey1 2016-03-04 10:12:57
Wherever the music is, you've got it covered!
THANKS Z MAN!
weallen 2016-03-04 11:27:40
Many thanks, Z Man for the effort and expense in recording this show (and all the others) and the upload to make it available for all of us.
Blues_Ken 2016-03-04 11:36:34
Thank you Z-man
torgrimr 2016-03-04 12:06:01
Thank you...
sprobeck 2016-03-04 13:50:44
thanks a lot Z
yf12 2016-03-04 16:28:29
thank you !!
rockymtnryan 2016-03-04 16:37:15
Nice work!
bandaloop06 2016-03-05 11:14:56
Thanks for all your work and sharing Z-Man! Also belated Happy B'Day! Peace.
zmanatl 2016-03-07 21:58:58
Ah, the 1st of 3 excellent nights in a row at the Famous Ryman. Here are a few of my amateur videos to give you a taste. Hand held in a very crowed houswe, so not the best.

99 And One Hal (With Steve Cropper)f:
https://youtu.be/700Y75Vbsd4

Anyhow:
https://youtu.be/uVkmeQNJ9hY

I Want More (With Jack Pearson):
https://youtu.be/WyhYavOIUjQ

In Every Heart (With Steve Cropper):
https://youtu.be/UxLWFQgFOoM

Let Me Get By:
https://youtu.be/dXztMgy_-kA

It Ain't Easy:
https://youtu.be/WQCc1tRvFAY

Midnight In Harlem (With Jack Pearson):
https://youtu.be/5D07cagXh2w




RBayers 2016-03-09 20:18:54
I just posted all 3 of these to LMA:
https://archive.org/details/TedeschiTrucksBand2016-03-03
https://archive.org/details/TedeschiTrucksBand2016-03-04
https://archive.org/details/TedeschiTrucksBand2016-03-05

Add a comment


http://etree.org : http://db.etree.org : http://forums.etree.org : http://wiki.etree.org : Legal : RSS Feed

Contents designed & maintained by the etree.org volunteers
1998-2014, etree.org, except where noted. All Rights Reserved.
Read our terms of service and privacy guidelines